<?xml version="1.0" standalone="no"?>
<!DOCTYPE svg PUBLIC "-//W3C//DTD SVG 1.1//EN" "http://www.w3.org/Graphics/SVG/1.1/DTD/svg11.dtd" >
<svg xmlns="http://www.w3.org/2000/svg">
<metadata>
<json>
<![CDATA[
{
	"fontFamily": "xRM1icons",
	"majorVersion": 1,
	"minorVersion": 0,
	"copyright": "",
	"fontURL": "http://www.xrm1.com",
	"version": "Version 1.0",
	"fontId": "xRM1icons",
	"psName": "xRM1icons",
	"subFamily": "Regular",
	"fullName": "xRM1icons",
	"description": "Font generated by IcoMoon."
}
]]>
</json>
</metadata>
<defs>
<font id="xRM1icons" horiz-adv-x="1024">
<font-face units-per-em="1024" ascent="960" descent="-64" />
<missing-glyph horiz-adv-x="1024" />
<glyph unicode="&#x20;" horiz-adv-x="512" d="" />
<glyph unicode="&#xe900;" glyph-name="Outlook" data-tags="Icon Outlook" horiz-adv-x="1020" d="M509.931 960c-278.771 0-509.931-232.119-509.931-511.97 0-279.911 231.16-512.030 509.931-512.030s509.931 232.119 509.931 512.030c0 279.851-231.16 511.97-509.931 511.97zM509.931 4.299c-244.832 0-441.932 198-441.932 443.671 0 218.688 156.145 399.118 363.020 436.296v-114.95h-58.285l130.421-150.149 137.137 150.149h-59.364v116.21c210.712-33.999 370.995-216.109 370.995-437.495 0-245.731-197.221-443.731-441.992-443.731zM734.315 565.379h-448.708c-20.508 0-27.224-13.612-27.224-27.283v-341.253c0-13.732 6.716-27.343 27.224-27.343h448.708c20.388 0 27.224 13.672 27.224 27.343v341.253c0 13.672-6.836 27.283-27.224 27.283zM700.256 510.752l-197.101-150.149-190.385 150.149h387.485zM713.868 224.126h-407.933v225.224l183.609-143.373c6.776-6.776 20.388-6.776 33.939 0l190.385 150.209v-232.059z" />
<glyph unicode="&#xe901;" glyph-name="SuccessManager" data-tags="Icon Success Manager" d="M512 960c285.2 0 512-226.8 512-512.060s-226.8-511.94-512-511.94c-285.261 0-512 226.739-512 512s226.739 512 512 512zM512 886.788c-241.37 0-438.969-197.479-438.969-438.849 0-241.31 197.539-446.194 438.969-446.194 241.37 0 438.849 204.824 438.849 446.194s-197.479 438.849-438.849 438.849zM295.315 286.405v0 0zM295.315 505.738v-219.153l-0.060-0.181h75.078v219.334h-75.018zM370.333 505.738c-0.12 0-0.12 0 0 0zM412.478 295.135c18.243-8.489 37.389-16.978 56.233-23.601 22.216-7.827 44.613-13.185 65.866-13.185h129.204c12.222 0 20.832 13.306 14.149 24.444l-0.602 0.843c-3.010 4.214-4.756 9.031-5.298 14.088-0.542 4.817 0.181 9.934 2.288 14.871 2.107 4.636 5.298 8.79 9.151 11.74 4.094 3.071 8.85 5.118 13.968 5.78h0.12c15.473 1.746 20.41 23.18 9.814 33.415-3.492 3.432-6.201 7.767-7.646 12.282h0.12l-0.060 0.181c-1.264 4.636-1.626 9.272-0.722 14.088 0.843 4.817 2.77 9.031 5.479 12.583l0.602 0.783c2.589 3.131 5.96 5.84 9.814 7.646l1.806 0.903c5.599 2.348 9.272 7.165 11.018 12.704 0.843 2.83 1.264 6.141 1.144 9.452-0.181 2.709-0.783 5.659-1.746 8.068l-0.301 0.602c-1.987 4.817-5.539 8.971-10.717 11.078l-1.264 0.301c-4.395 1.204-8.248 3.432-11.379 6.442l-1.505 1.505c-10.897 11.56-10.596 29.983 0.482 41.182l0.12-0.12c4.034 4.154 6.081 10.356 6.081 16.617 0 3.612-0.662 6.864-1.626 9.874-1.024 2.709-2.649 5.118-4.636 7.225-3.372 3.251-8.61 5.358-15.714 5.358v0.301l-89.889-0.12v-0.181c-27.635 0-46.239 29.682-34.258 54.548 4.877 10.055 10.657 22.156 16.015 34.739 5.479 12.583 10.657 25.468 14.329 36.726 3.071 9.151 4.696 18.243 4.696 26.792 0 7.526-1.325 14.088-4.034 18.905h0.060l-0.12 0.301c-1.806 3.131-4.516 5.84-8.128 7.165l-1.024 0.301c-2.468 0.903-5.479 1.385-9.031 1.385-7.104 0-11.861-2.589-15.714-7.044-5.78-6.623-10.897-18.002-16.497-31.187-15.955-36.726-36.606-68.636-60.628-97.957-21.313-26.371-45.215-50.333-70.623-73.874 0.421-2.529 0.602-4.937 0.602-7.345v-210.604zM384.602 545.294c23.722 22.156 45.878 44.373 65.204 68.034 21.614 26.672 40.278 55.39 54.427 88.384 7.104 16.196 13.667 30.525 23.541 41.964 11.74 13.607 26.371 21.554 47.563 21.554 8.309 0 15.654-1.204 22.277-3.311l2.228-0.903c13.727-5.118 23.842-14.389 30.525-26.371 6.382-11.379 9.513-24.986 9.513-39.556 0-12.583-2.408-26.371-6.984-40.158-4.275-12.824-9.874-26.913-15.714-40.158-4.576-10.777-9.513-21.253-13.787-30.224h83.266c50.754 0 79.654-54.246 55.992-97.355 36.124-23.119 37.81-79.895 4.034-106.085 17.701-30.886 6.502-73.994-27.334-88.384 1.806-5.72 2.709-11.68 2.709-17.701 0-18.604-8.79-37.268-24.023-48.226l-1.626-1.084c-8.971-5.9-19.808-9.633-32.632-9.633h-129.204c-26.371 0-53.404 6.442-79.714 15.594-19.447 6.743-38.352 15.172-56.233 23.601-7.526-6.924-17.46-11.138-28.297-11.138h-75.078c-11.56 0-22.156 4.756-29.802 12.403-7.586 7.646-12.403 18.183-12.403 29.802v219.394c0 23.059 19.146 42.265 42.205 42.265h75.078c4.997 0 9.874-0.903 14.269-2.709z" />
<glyph unicode="&#xe902;" glyph-name="Komplettloesung" data-tags="Icon Komplettlösung" horiz-adv-x="1020" d="M179.891 309.394v43.414c18.649-14.691 39.576-22.067 62.902-22.067 18.949 0 34.179 4.317 45.572 12.952s16.97 20.328 16.97 35.019c0 32.44-24.705 48.631-74.235 48.631h-22.187v36.938h21.167c43.893 0 65.9 15.291 65.9 45.812 0 28.183-17.090 42.214-51.329 42.214-19.068 0-37.058-6.836-53.907-20.508v41.075c19.308 10.853 42.274 16.25 68.718 16.25 25.365 0 45.632-6.296 60.923-19.068s22.906-29.022 22.906-48.93c0-37.597-19.068-61.703-57.325-72.496v-0.839c20.388-1.979 36.698-9.174 48.631-21.527 11.933-12.412 17.929-28.003 17.929-46.472 0-25.664-9.594-46.292-28.843-62.062-19.248-15.71-44.553-23.626-76.094-23.626-28.243 0-50.849 5.097-67.699 15.291zM542.731 581.029v-39.996c-14.271 7.495-29.202 11.273-44.793 11.273-24.285 0-43.714-9.774-58.405-29.442-14.571-19.668-21.887-46.052-21.887-79.032h0.839c12.832 23.866 34.059 35.798 63.681 35.798 24.285 0 43.654-8.095 57.985-24.225 14.271-16.25 21.467-37.837 21.467-64.941 0-28.423-8.815-51.569-26.564-69.498s-40.236-26.864-67.399-26.864c-30.102 0-53.727 11.393-70.877 34.239s-25.724 54.927-25.724 96.182c0 50.070 11.213 90.006 33.58 119.867s51.989 44.733 88.866 44.733c20.747 0 37.177-2.638 49.23-8.095zM468.256 443.473c-14.271 0-26.024-5.037-34.899-15.111-9.055-9.954-13.492-21.827-13.492-35.499 0-17.090 4.437-31.721 13.372-43.893 8.875-12.113 20.747-18.229 35.439-18.229 13.912 0 25.245 5.277 33.82 15.83s12.952 23.926 12.952 40.116c0 17.809-4.078 31.721-12.353 41.675-8.275 10.074-19.848 15.111-34.839 15.111zM674.352 294.103c-29.742 0-52.948 12.173-69.558 36.458-16.61 24.225-25.005 59.364-25.005 105.296 0 50.489 8.755 88.626 26.084 114.471 17.449 25.904 42.514 38.797 75.314 38.797 62.782 0 94.143-48.75 94.143-146.311 0-48.331-8.815-85.148-26.564-110.573-17.749-25.485-42.574-38.137-74.415-38.137zM678.909 552.307c-34.599 0-51.929-38.137-51.929-114.471 0-71.417 16.97-107.095 51.029-107.095 33.46 0 50.13 36.278 50.13 108.894 0 75.135-16.43 112.672-49.23 112.672zM848.306 477.292c-15.531 0-28.723 5.397-39.636 16.25s-16.31 24.105-16.31 39.816c0 15.411 5.397 28.423 16.19 38.976 10.734 10.674 23.806 15.95 39.216 15.95 15.651 0 28.903-5.277 39.876-16.010s16.43-23.686 16.43-38.916c0-15.71-5.457-28.903-16.31-39.816s-24.045-16.25-39.456-16.25zM848.306 561.841c-7.975 0-14.751-2.758-20.448-8.335-5.637-5.637-8.455-12.353-8.455-20.328 0-8.155 2.758-15.051 8.275-20.807 5.517-5.816 12.233-8.695 20.208-8.695 7.855 0 14.631 2.938 20.388 8.755 5.816 5.876 8.695 12.772 8.695 20.747 0 8.095-2.818 14.871-8.455 20.448-5.577 5.517-12.353 8.215-20.208 8.215zM831.277 846.069h128.682v71.956h-255.865v-255.805h71.896v132.76c103.557-80.052 171.016-204.716 171.016-344.911 0-240.394-196.621-444.331-437.075-444.331-240.334 0-437.075 203.937-437.075 444.331s196.741 437.075 437.075 437.075c1.379 0 2.698-0.24 4.018-0.24v72.916c-1.319 0-2.638 0.18-4.018 0.18-284.048 0-509.931-225.883-509.931-509.991s225.823-509.871 509.871-509.871c284.108 0 509.991 225.763 509.991 509.871 0.060 161.362-73.575 302.997-188.586 396.060z" />
<glyph unicode="&#xe903;" glyph-name="ArrowRight" data-tags="Icon Arrow Right" d="M512 960c285.2 0 512-226.8 512-512.060s-226.8-511.94-512-511.94c-285.261 0-512 226.739-512 512s226.739 512 512 512zM512 886.788c-241.37 0-438.969-197.479-438.969-438.849 0-241.31 197.539-446.194 438.969-446.194 241.37 0 438.849 204.824 438.849 446.194s-197.479 438.849-438.849 438.849zM554.085 756.019l-55.27-55.27 219.575-219.515-561.731 0.060v-78.088h561.851l-219.575-219.575 55.15-55.15 313.738 313.618z" />
<glyph unicode="&#xe904;" glyph-name="0" data-tags="Icon_0" d="M512 960c285.2 0 512-226.8 512-512.060s-226.8-511.94-512-511.94c-285.261 0-512 226.739-512 512s226.739 512 512 512zM512 886.788c-241.37 0-438.969-197.479-438.969-438.849s197.539-446.194 438.969-446.194 438.849 204.824 438.849 446.194-197.419 438.849-438.849 438.849zM504.715 115.236c-70.262 0-125.050 28.719-164.365 86.096-39.375 57.377-59.003 140.342-59.003 248.835 0 119.15 20.531 209.34 61.592 270.45 41.061 61.17 100.365 91.695 177.791 91.695 148.29 0 222.465-115.236 222.465-345.708 0-114.152-20.952-201.272-62.796-261.298s-100.425-90.070-175.684-90.070zM515.552 725.313c-81.821 0-122.762-90.13-122.762-270.45 0-168.7 40.158-253.050 120.414-253.050 79.052 0 118.548 85.795 118.548 257.264-0.060 177.49-38.773 266.235-116.199 266.235z" />
<glyph unicode="&#xe905;" glyph-name="1" data-tags="Icon_1" d="M512 960c285.2 0 512-226.8 512-512.060s-226.8-511.94-512-511.94c-285.261 0-512 226.739-512 512s226.739 512 512 512zM512 886.788c-241.37 0-438.969-197.479-438.969-438.849s197.539-446.194 438.969-446.194 438.849 204.824 438.849 446.194-197.419 438.849-438.849 438.849zM727.661 126.495h-401.701v90.31h146.785v476.96l-150.517-39.977v95.007l259.612 64.903v-596.892h145.821v-90.31z" />
<glyph unicode="&#xe906;" glyph-name="2" data-tags="Icon_2" d="M512 960c285.2 0 512-226.8 512-512.060s-226.8-511.94-512-511.94c-285.261 0-512 226.739-512 512s226.739 512 512 512zM512 886.788c-241.37 0-438.969-197.479-438.969-438.849s197.539-446.194 438.969-446.194 438.849 204.824 438.849 446.194-197.419 438.849-438.849 438.849zM715.439 126.495h-423.315v89.829l186.762 181.103c47.684 46.119 81.641 84.41 102.051 114.995 20.35 30.585 30.585 63.278 30.585 98.077 0 35.763-10.596 63.458-31.729 83.025s-51.417 29.381-90.611 29.381c-57.377 0-112.286-25.708-164.606-77.125v104.881c55.511 41.121 119.932 61.592 193.325 61.592 63.338 0 113.189-15.955 149.554-47.744s54.548-77.848 54.548-138.055c0-40.459-11.319-80.015-33.897-118.788s-66.047-89.407-130.288-152.143l-138.717-133.057v-2.348h296.339v-93.622z" />
<glyph unicode="&#xe907;" glyph-name="3" data-tags="Icon_3" d="M512 960c285.2 0 512-226.8 512-512.060s-226.8-511.94-512-511.94c-285.261 0-512 226.739-512 512s226.739 512 512 512zM512 886.788c-241.37 0-438.969-197.479-438.969-438.849s197.539-446.194 438.969-446.194 438.849 204.824 438.849 446.194-197.419 438.849-438.849 438.849zM309.524 151.421v102.532c43.891-34.8 93.441-52.199 148.651-52.199 44.854 0 80.677 10.175 107.469 30.585s40.218 47.985 40.218 82.785c0 76.523-58.521 114.754-175.443 114.754h-52.26v87.481h49.851c103.797 0 155.695 36.064 155.695 108.192 0 66.468-40.459 99.703-121.377 99.703-45.155 0-87.661-16.196-127.458-48.467v96.933c45.757 25.708 99.883 38.593 162.258 38.593 59.846 0 107.831-15.052 143.955-45.155 36.064-30.103 54.066-68.696 54.066-115.718 0-88.745-45.155-145.821-135.466-171.229v-1.866c48.587-4.696 86.999-21.675 115.236-51.056s42.325-65.927 42.325-109.817c0-60.508-22.758-109.336-68.214-146.544-45.516-37.148-105.362-55.752-179.658-55.752-66.709 0.060-120.053 12.102-159.849 36.245z" />
<glyph unicode="&#xe908;" glyph-name="4" data-tags="Icon_4" d="M512 960c285.2 0 512-226.8 512-512.060s-226.8-511.94-512-511.94c-285.261 0-512 226.739-512 512s226.739 512 512 512zM512 886.788c-241.37 0-438.969-197.479-438.969-438.849s197.539-446.194 438.969-446.194 438.849 204.824 438.849 446.194-197.419 438.849-438.849 438.849zM689.55 289.234h-84.169v-162.739h-102.532v162.739h-306.694v70.563l292.546 441.197h116.681v-429.456h84.169v-82.303zM502.849 371.597v260.997c0 18.544 0.602 39.195 1.866 62.073h-1.866c-3.793-10.055-11.439-25.407-23.059-46.119l-183.451-276.952h206.51z" />
<glyph unicode="&#xe909;" glyph-name="5" data-tags="Icon_5" d="M512 960c285.2 0 512-226.8 512-512.060s-226.8-511.94-512-511.94c-285.261 0-512 226.739-512 512s226.739 512 512 512zM512 886.788c-241.37 0-438.969-197.479-438.969-438.849s197.539-446.194 438.969-446.194 438.849 204.824 438.849 446.194-197.419 438.849-438.849 438.849zM321.746 142.028v104.881c44.192-29.802 89.046-44.674 134.502-44.674 45.757 0 82.604 11.68 110.54 35.040 27.876 23.36 41.844 54.487 41.844 93.381 0 38.292-14.209 68.034-42.566 89.347-28.357 21.373-69.057 31.97-122.040 31.97-18.183 0-51.898-1.866-101.148-5.659v354.679h346.672v-93.14h-250.702v-168.881c20.35 1.264 39.315 1.866 56.896 1.866 71.526 0 126.736-18.363 165.81-55.029s58.581-86.818 58.581-150.517c0-66.77-22.337-120.354-67.010-160.632s-106.085-60.448-184.173-60.448c-65.866 0.060-114.935 9.272-147.206 27.816z" />
<glyph unicode="&#xe90a;" glyph-name="6" data-tags="Icon_6" d="M512 960c285.2 0 512-226.8 512-512.060s-226.8-511.94-512-511.94c-285.261 0-512 226.739-512 512s226.739 512 512 512zM512 886.788c-241.37 0-438.969-197.479-438.969-438.849s197.539-446.194 438.969-446.194 438.849 204.824 438.849 446.194-197.419 438.849-438.849 438.849zM665.347 793.046v-94.525c-33.656 17.881-68.937 26.792-105.844 26.792-57.437 0-103.375-23.24-137.874-69.599-34.499-46.42-51.718-108.674-51.718-186.762h1.866c30.405 56.414 80.617 84.651 150.517 84.651 57.437 0 103.014-19.086 136.911-57.377s50.815-89.347 50.815-153.347c0-67.071-20.952-121.799-62.796-164.184s-95.007-63.518-159.247-63.518c-71.225 0-126.976 26.973-167.436 80.918s-60.689 129.626-60.689 227.161c0 118.246 26.371 212.591 79.232 283.153 52.802 70.563 122.822 105.844 210.062 105.844 48.948 0.060 87.601-6.382 116.199-19.206zM489.362 467.989c-33.897 0-61.411-11.801-82.544-35.522s-31.729-51.658-31.729-83.929c0-40.459 10.476-75.018 31.488-103.737s48.948-43.048 83.748-43.048c32.933 0 59.545 12.463 80.015 37.389 20.35 24.926 30.585 56.474 30.585 94.766 0 42.024-9.754 74.837-29.14 98.559-19.567 23.722-46.961 35.522-82.423 35.522z" />
<glyph unicode="&#xe90b;" glyph-name="7" data-tags="Icon_7" d="M512 960c285.2 0 512-226.8 512-512.060s-226.8-511.94-512-511.94c-285.261 0-512 226.739-512 512s226.739 512 512 512zM512 886.788c-241.37 0-438.969-197.479-438.969-438.849s197.539-446.194 438.969-446.194 438.849 204.824 438.849 446.194-197.419 438.849-438.849 438.849zM737.535 722.664l-254.013-630.307h-114.754l246.969 581.358h-328.79v93.14h450.589v-44.192z" />
<glyph unicode="&#xe90c;" glyph-name="8" data-tags="Icon_8" d="M512 960c285.2 0 512-226.8 512-512.060s-226.8-511.94-512-511.94c-285.261 0-512 226.739-512 512s226.739 512 512 512zM512 886.788c-241.37 0-438.969-197.479-438.969-438.849s197.539-446.194 438.969-446.194 438.849 204.824 438.849 446.194-197.419 438.849-438.849 438.849zM428.975 480.211v1.866c-79.353 37.629-119.029 92.056-119.029 163.221 0 48.948 19.929 88.986 59.725 120.173 39.797 31.247 91.093 46.781 153.829 46.781 56.715 0 103.315-14.57 139.68-43.77 36.365-29.14 54.548-66.589 54.548-112.406 0-74.596-41.723-132.636-125.11-174.058v-1.866c96.572-35.040 144.918-95.91 144.918-182.427 0-55.812-21.193-100.184-63.518-133.118s-101.328-49.37-176.888-49.37c-61.17 0-111.443 16.316-150.758 48.948-39.375 32.632-59.003 74.958-59.003 126.976 0 86.517 47.202 149.554 141.607 189.050zM508.026 432.707c-75.921-30.405-113.851-74.295-113.851-131.733 0-29.802 11.078-54.246 33.174-73.392s51.176-28.719 87.24-28.719c34.137 0 62.134 9.392 83.989 28.237 21.735 18.845 32.692 42.506 32.692 71.044-0.060 60.267-41.121 105.121-123.244 134.563zM611.462 639.699c0 27.274-8.61 48.888-25.648 64.662-17.099 15.834-40.339 23.722-69.84 23.722-27.575 0-50.995-8.248-70.081-24.685-19.146-16.437-28.659-37.389-28.659-62.796 0-51.718 32.151-90.792 96.452-117.103 65.144 26.973 97.776 65.686 97.776 116.199z" />
<glyph unicode="&#xe90d;" glyph-name="9" data-tags="Icon_9" d="M512 960c285.2 0 512-226.8 512-512.060s-226.8-511.94-512-511.94c-285.261 0-512 226.739-512 512s226.739 512 512 512zM512 886.788c-241.37 0-438.969-197.479-438.969-438.849s197.539-446.194 438.969-446.194 438.849 204.824 438.849 446.194-197.419 438.849-438.849 438.849zM322.649 139.198v94.525c36.365-21.313 74.958-31.97 115.718-31.97 59.244 0 105.362 21.554 138.295 64.662s49.37 104.339 49.37 183.691c-0.662-0.301-1.264-0.301-1.866 0-27.936-52.019-76.523-78.088-145.821-78.088-56.173 0-102.292 19.808-138.536 59.484s-54.307 90.732-54.307 153.167c0 66.468 21.313 121.076 64 163.703 42.627 42.627 97.054 64 163.221 64 69.599 0 123.966-26.31 162.98-78.811s58.581-129.144 58.581-229.75c0-124.207-25.407-219.936-76.222-287.368s-121.377-101.148-211.688-101.148c-47.684-0.060-88.865 7.947-123.725 23.902zM505.197 725.313c-31.669 0-58.16-12.403-79.473-37.148-21.373-24.805-32.030-56.173-32.030-94.103 0-42.024 10.416-74.958 31.308-98.8 20.832-23.842 49.129-35.763 84.892-35.763 31.067 0 57.257 10.897 78.811 32.692 21.434 21.795 32.211 48.527 32.211 80.196 0 44.854-10.777 81.52-32.211 110.058-21.554 28.538-49.37 42.867-83.507 42.867z" />
<glyph unicode="&#xe90e;" glyph-name="checkmark" data-tags="Icon_checkmark" d="M512 960c285.2 0 512-226.8 512-512.060s-226.8-511.94-512-511.94c-285.261 0-512 226.739-512 512s226.739 512 512 512zM512 886.788c-241.37 0-438.969-197.479-438.969-438.849 0-241.31 197.539-446.194 438.969-446.194 241.37 0 438.849 204.824 438.849 446.194s-197.479 438.849-438.849 438.849zM481.174 162.198l-326.081 256.241 76.162 96.813 231.977-182.246 293.81 352.632 94.645-78.811z" />
<glyph unicode="&#xe90f;" glyph-name="DoubleArrowDown" data-tags="Icon Double Arrow Down" d="M974.052 419.442v-134.372l-487.083-296.846-486.969 296.846v134.372l486.969-298.098zM974.052 903.111v-133.12l-487.083-298.098-486.969 298.098v133.12l486.969-298.098z" />
<glyph unicode="&#xe910;" glyph-name="Click" data-tags="Icon Click" d="M512 960c285.2 0 512-226.8 512-512 0-285.261-226.8-512-512-512-285.261 0-512 226.739-512 512 0 285.2 226.739 512 512 512zM512 886.788c-241.43 0-438.969-197.479-438.969-438.788 0-241.37 197.539-446.194 438.969-446.194 241.37 0 438.849 204.824 438.849 446.194 0 241.31-197.479 438.788-438.849 438.788zM321.565 666.31l394.717-131.251c11.56-3.853 17.881-16.437 14.028-28.056-1.927-5.659-5.84-9.994-10.777-12.583h0.12l-115.236-60.628 111.142-111.142c8.73-8.67 8.73-22.638 0-31.247l-46.781-46.901c-8.79-8.73-22.698-8.73-31.428 0l-1.024 1.084-110.119 109.998-60.448-115.176c-5.78-10.837-19.206-14.992-29.983-9.272-5.659 3.010-9.513 8.128-11.078 13.727l-131.010 393.452c-3.853 11.74 2.468 24.263 14.028 27.996 4.696 1.565 9.573 1.505 13.848 0z" />
<glyph unicode="&#xe911;" glyph-name="Phone" data-tags="Icon Phone" d="M512 960c285.2 0 512-226.8 512-512 0-285.261-226.8-512-512-512-285.261 0-512 226.739-512 512 0 285.2 226.739 512 512 512zM512 886.788c-241.43 0-438.969-197.479-438.969-438.788 0-241.37 197.539-446.194 438.969-446.194 241.37 0 438.849 204.824 438.849 446.194 0 241.31-197.479 438.788-438.849 438.788zM375.21 682.085v0 0zM375.33 682.085v0 0 0zM375.33 682.085l75.5-97.234c3.432-4.817 5.96-9.994 7.405-15.413 1.626-6.081 1.866-12.403 1.024-18.905-0.903-6.442-3.010-12.583-6.201-17.881l-0.783-1.084c-3.071-4.937-7.165-9.272-11.981-12.764l-1.264-0.843-36.184-26.25c-2.228-5.238-5.057-16.858 4.937-31.067 15.955-22.939 33.776-44.071 53.223-63.639v-0.060l0.12 0.060c19.688-19.627 40.881-37.509 63.579-53.343 14.269-9.934 25.769-7.225 31.067-4.877l27.274 37.268h-0.12c3.793 5.298 8.489 9.573 13.848 12.884h-0.060c5.419 3.251 11.439 5.298 17.881 6.262h0.783c6.262 0.903 12.342 0.421 18.243-1.144l1.024-0.361c5.599-1.565 10.897-4.335 15.834-8.188v0.241l95.849-74.416 1.445-1.385c4.817-3.974 8.67-8.79 11.439-14.269 3.191-5.96 4.937-12.583 5.178-19.688 0.361-7.044-0.722-13.787-3.311-20.049v0c-2.468-6.262-6.502-11.921-11.62-16.738-6.262-5.78-13.787-11.68-23.059-17.279l-1.084-0.542c-8.79-5.178-19.146-10.115-31.308-14.088-52.681-17.4-108.914-14.329-162.86 3.673-57.197 19.025-111.865 54.548-156.779 99.462s-80.557 99.522-99.582 156.719c-17.881 54.006-21.133 110.239-3.612 162.92 4.214 12.643 9.332 23.36 14.751 32.331l0.060 0.12c5.479 9.151 11.379 16.798 17.219 22.939 4.817 5.057 10.476 9.031 16.738 11.56l1.565 0.542c5.9 2.167 12.041 3.010 18.423 2.77 7.165-0.241 13.787-1.987 19.748-5.118l1.024-0.602 14.63-12.523z" />
<glyph unicode="&#xe912;" glyph-name="Mail" data-tags="Icon Mail" d="M512 960c285.2 0 512-226.8 512-512 0-285.261-226.8-512-512-512-285.261 0-512 226.739-512 512 0 285.2 226.739 512 512 512zM512 886.788c-241.43 0-438.969-197.479-438.969-438.788 0-241.37 197.539-446.194 438.969-446.194 241.37 0 438.849 204.824 438.849 446.194 0 241.31-197.479 438.788-438.849 438.788zM314.040 591.955l191.157-150.758 197.9 150.758h-389.057zM307.176 304.045h409.588v233.121l-191.217-150.818c-13.607-6.864-27.214-6.864-34.017 0l-184.354 143.895v-226.198zM737.294 249.197h-450.529c-20.591 0-27.334 13.787-27.334 27.454v342.758c0 13.727 6.743 27.394 27.334 27.394h450.529c20.47 0 27.274-13.727 27.274-27.394v-342.698c0-13.727-6.803-27.515-27.274-27.515z" />
<glyph unicode="&#xe913;" glyph-name="Edit" data-tags="Icon Edit" d="M512 960c285.2 0 512-226.8 512-512 0-285.261-226.8-512-512-512-285.261 0-512 226.739-512 512 0 285.2 226.739 512 512 512zM512 886.788c-241.43 0-438.969-197.479-438.969-438.788 0-241.37 197.539-446.194 438.969-446.194 241.37 0 438.849 204.824 438.849 446.194 0 241.31-197.479 438.788-438.849 438.788zM412.478 236.674c-8.008-7.947-16.196-7.947-24.263 0l-89.227 81.52c-8.008 8.128-8.008 24.384 0 32.512l275.748 276.832c8.068 8.128 24.324 8.128 32.452 0l80.978-89.588c8.128-8.068 8.128-16.256 0-24.384l-275.688-276.892zM761.257 692.621c-48.647 48.828-97.415 16.316-97.415 16.316-8.188-8.128-24.324-24.384-32.391-24.384-8.128-8.188-8.128-24.504 0-32.512l89.106-81.52c8.068-8.128 16.196-8.128 24.324 0 8.128 8.188 16.316 16.256 24.384 24.384 0.060 0.060 40.459 48.948-8.008 97.716zM315.183 187.966c8.188 0 8.188 8.248 0 16.196l-40.459 48.948c-8.248 8.248-16.316 0-16.316-8.128l-16.196-56.956c-8.128-8.128 0-16.256 8.128-16.256l64.843 16.196z" />
<glyph unicode="&#xe914;" glyph-name="Question" data-tags="Icon Question" d="M512 960c285.2 0 512-226.8 512-512 0-285.261-226.8-512-512-512-285.261 0-512 226.739-512 512 0 285.2 226.739 512 512 512zM512 886.788c-241.43 0-438.969-197.479-438.969-438.788 0-241.37 197.539-446.194 438.969-446.194 241.37 0 438.849 204.824 438.849 446.194 0 241.31-197.479 438.788-438.849 438.788zM419.582 305.731c-3.131 8.188-5.599 17.279-7.285 27.515-1.686 10.175-2.589 19.808-2.589 28.899 0 14.389 1.385 27.575 4.214 39.496s7.044 23.119 12.704 33.656c5.659 10.476 12.704 20.531 21.193 30.103 8.429 9.513 18.303 19.086 29.622 28.478 11.921 9.994 22.337 19.326 31.308 27.996 8.911 8.61 16.497 17.219 22.818 25.889 6.262 8.61 11.018 17.58 14.088 26.792 3.131 9.212 4.696 19.507 4.696 30.826 0 9.693-1.686 18.724-5.178 27.033s-8.429 15.413-14.811 21.373c-6.442 5.96-14.329 10.657-23.541 14.088-9.212 3.492-19.507 5.178-30.826 5.178-24.444 0-49.851-5.118-76.222-15.293s-51.296-25.648-74.777-46.359v141.607c24.203 14.45 50.514 25.227 79.052 32.512 28.538 7.225 58.040 10.837 88.444 10.837 29.14 0 56.294-3.251 81.4-9.633 25.106-6.442 46.961-16.557 65.626-30.344s33.234-31.428 43.77-52.922c10.536-21.494 15.774-47.262 15.774-77.366 0-19.146-2.167-36.425-6.563-51.959s-10.837-30.164-19.266-43.951c-8.489-13.787-18.965-27.033-31.488-39.737s-26.973-25.829-43.289-39.255c-11.018-9.091-20.651-17.58-28.899-25.407-8.309-7.887-15.232-15.654-20.711-23.3-5.659-7.827-9.814-15.955-12.643-24.564-2.83-8.67-4.214-18.484-4.214-29.381 0-7.526 1.024-15.232 3.071-23.059s4.756-14.389 8.248-19.748h-123.725zM488.218 99.703c-25.106 0-45.938 7.526-62.555 22.578-16.617 15.714-24.926 34.137-24.926 55.511 0 21.915 8.309 40.278 24.926 55.029s37.449 22.096 62.555 22.096c24.745 0 45.336-7.345 61.592-22.096 16.316-14.389 24.444-32.753 24.444-55.029 0-22.578-8.008-41.242-23.962-55.992-16.256-14.751-36.967-22.096-62.073-22.096z" />
<glyph unicode="&#xe915;" glyph-name="Attention" data-tags="Icon Attention" d="M512 960c285.2 0 512-226.8 512-512 0-285.261-226.8-512-512-512-285.261 0-512 226.739-512 512 0 285.2 226.739 512 512 512zM512 886.788c-241.43 0-438.969-197.479-438.969-438.788 0-241.37 197.539-446.194 438.969-446.194 241.37 0 438.849 204.824 438.849 446.194 0 241.31-197.479 438.788-438.849 438.788zM598.457 171.831c0-20.651-10.115-41.001-20.35-51.357-20.41-20.41-40.64-20.41-61.050-20.41-30.465 0-50.815 0-71.225 20.41-10.235 20.47-20.35 30.706-20.35 51.357 0 30.645 10.115 51.056 20.35 61.351 20.41 20.47 40.76 20.47 71.225 20.47 20.41 0 40.64 0 61.050-20.47 10.235-10.295 20.35-30.706 20.35-61.351zM588.342 795.936l-20.41-470.758h-122.040l-10.235 470.758h152.685z" />
<glyph unicode="&#xe916;" glyph-name="Cross" data-tags="Icon Cross" d="M777.934 607.548l-106.446 106.386-159.548-159.488-159.488 159.488-106.446-106.386 159.488-159.548-159.488-159.548 106.446-106.446 159.488 159.548 159.488-159.548 106.446 106.446-159.488 159.488zM512 960c285.2 0 512-226.8 512-512 0-285.261-226.8-512-512-512-285.261 0-512 226.739-512 512 0 285.2 226.739 512 512 512zM512 886.788c-241.43 0-438.969-197.479-438.969-438.788 0-241.37 197.539-446.194 438.969-446.194 241.37 0 438.849 204.824 438.849 446.194 0 241.31-197.479 438.788-438.849 438.788z" />
<glyph unicode="&#xe917;" glyph-name="ArrowLowerLeft" data-tags="Icon Arrow Lower Left" d="M512 960c285.2 0 512-226.8 512-512.060s-226.8-511.94-512-511.94c-285.261 0-512 226.739-512 512s226.739 512 512 512zM512 886.788c-241.37 0-438.969-197.479-438.969-438.849 0-241.31 197.539-446.194 438.969-446.194 241.37 0 438.849 204.824 438.849 446.194s-197.479 438.849-438.849 438.849zM690.815 157.501l0.060 78.149-310.548-0.060 397.246 397.185-55.21 55.21-397.306-397.246 0.060 310.427h-78.028l-0.060-443.605z" />
<glyph unicode="&#xe918;" glyph-name="ArrowLeft" data-tags="Icon Arrow Left" d="M512 960c285.2 0 512-226.8 512-512.060s-226.8-511.94-512-511.94c-285.261 0-512 226.739-512 512s226.739 512 512 512zM512 886.788c-241.37 0-438.969-197.479-438.969-438.849 0-241.31 197.539-446.194 438.969-446.194 241.37 0 438.849 204.824 438.849 446.194s-197.479 438.849-438.849 438.849zM470.457 128.482l55.21 55.21-219.454 219.515h561.731v78.088h-561.791l219.515 219.575-55.21 55.15-313.678-313.738z" />
<glyph unicode="&#xe919;" glyph-name="ArrowUpperLeft" data-tags="Icon Arrow Upper Left" d="M512 960c285.2 0 512-226.8 512-512.060s-226.8-511.94-512-511.94c-285.261 0-512 226.739-512 512s226.739 512 512 512zM512 886.788c-241.37 0-438.969-197.479-438.969-438.849 0-241.31 197.539-446.194 438.969-446.194 241.37 0 438.849 204.824 438.849 446.194s-197.479 438.849-438.849 438.849zM247.029 244.199h78.088l-0.060 310.487 397.246-397.246 55.21 55.27-397.306 397.246h310.487v77.968l-443.605 0.060z" />
<glyph unicode="&#xe91a;" glyph-name="ArrowUp" data-tags="Icon Arrow Up" d="M512 960c285.2 0 512-226.8 512-512.060s-226.8-511.94-512-511.94c-285.261 0-512 226.739-512 512s226.739 512 512 512zM512 886.788c-241.37 0-438.969-197.479-438.969-438.849 0-241.31 197.539-446.194 438.969-446.194 241.37 0 438.849 204.824 438.849 446.194s-197.479 438.849-438.849 438.849zM198.442 484.064l55.27-55.21 219.515 219.575-0.060-561.791h78.088v561.912l219.575-219.575 55.15 55.15-313.618 313.738z" />
<glyph unicode="&#xe91b;" glyph-name="ArrowUpperRight" data-tags="Icon Arrow Upper Right" d="M512 960c285.2 0 512-226.8 512-512.060s-226.8-511.94-512-511.94c-285.261 0-512 226.739-512 512s226.739 512 512 512zM512 886.788c-241.37 0-438.969-197.479-438.969-438.849 0-241.31 197.539-446.194 438.969-446.194 241.37 0 438.849 204.824 438.849 446.194s-197.479 438.849-438.849 438.849zM320.060 693.705v-78.088h310.487l-397.246-397.246 55.21-55.15 397.246 397.246v-310.487h78.028v443.725z" />
<glyph unicode="&#xe91c;" glyph-name="ArrowLowerRight" data-tags="Icon Arrow Lower Right" d="M512 960c285.2 0 512-226.8 512-512.060s-226.8-511.94-512-511.94c-285.261 0-512 226.739-512 512s226.739 512 512 512zM512 886.788c-241.37 0-438.969-197.479-438.969-438.849 0-241.31 197.539-446.194 438.969-446.194 241.37 0 438.849 204.824 438.849 446.194s-197.479 438.849-438.849 438.849zM763.786 606.886h-78.088v-310.427l-397.246 397.246-55.15-55.21 397.246-397.246h-310.487v-78.028h443.725z" />
<glyph unicode="&#xe91d;" glyph-name="ArrowDown" data-tags="Icon Arrow Down" d="M512 960c285.2 0 512-226.8 512-512.060s-226.8-511.94-512-511.94c-285.261 0-512 226.739-512 512s226.739 512 512 512zM512 886.788c-241.37 0-438.969-197.479-438.969-438.849 0-241.31 197.539-446.194 438.969-446.194 241.37 0 438.849 204.824 438.849 446.194s-197.479 438.849-438.849 438.849zM812.252 367.022l-55.21 55.27-219.515-219.515v561.731h-78.028v-561.851l-219.515 219.515-55.21-55.15 313.678-313.738z" />
<glyph unicode="&#xe91e;" glyph-name="DoubleArrowUp" data-tags="Icon Double Arrow Up" d="M0 471.893v134.372l486.969 296.846 487.083-296.846v-134.372l-487.083 298.098zM0-11.776v133.12l486.969 298.098 487.083-298.098v-133.12l-487.083 298.098z" />
<glyph unicode="&#xe91f;" glyph-name="VideoPause" data-tags="Icon Video Pause" d="M512 960c285.2 0 512-226.8 512-512.060s-226.8-511.94-512-511.94c-285.261 0-512 226.739-512 512s226.739 512 512 512zM512 886.788c-241.37 0-438.969-197.479-438.969-438.849 0-241.31 197.539-446.194 438.969-446.194 241.37 0 438.849 204.824 438.849 446.194s-197.479 438.849-438.849 438.849zM307.477 734.284h169.603v-572.568h-169.603v572.568zM546.8 734.284h169.663v-572.568h-169.663v572.568z" />
<glyph unicode="&#xe920;" glyph-name="VideoPlay" data-tags="Icon Video Play" d="M512 960c285.2 0 512-226.8 512-512.060s-226.8-511.94-512-511.94c-285.261 0-512 226.739-512 512s226.739 512 512 512zM512 886.788c-241.37 0-438.969-197.479-438.969-438.849 0-241.31 197.539-446.194 438.969-446.194 241.37 0 438.849 204.824 438.849 446.194s-197.479 438.849-438.849 438.849zM344.986 734.284l495.925-286.284-495.925-286.284z" />
<glyph unicode="&#xe921;" glyph-name="VideoStop" data-tags="Icon Video Stop" d="M512 960c285.2 0 512-226.8 512-512.060s-226.8-511.94-512-511.94c-285.261 0-512 226.739-512 512s226.739 512 512 512zM512 886.788c-241.37 0-438.969-197.479-438.969-438.849 0-241.31 197.539-446.194 438.969-446.194 241.37 0 438.849 204.824 438.849 446.194s-197.479 438.849-438.849 438.849zM283.515 676.485h456.911v-456.911h-456.911v456.911z" />
<glyph unicode="&#xe922;" glyph-name="Icon-Call-To-Action" data-tags="Icon Call To Action" d="M512 960c285.2 0 512-226.8 512-512.060s-226.8-511.94-512-511.94c-285.261 0-512 226.739-512 512s226.739 512 512 512zM512 886.788c-241.37 0-438.969-197.479-438.969-438.849 0-241.31 197.539-446.194 438.969-446.194 241.37 0 438.849 204.824 438.849 446.194s-197.479 438.849-438.849 438.849zM554.205 756.019l-55.21-55.21 219.515-219.515h-561.731v-78.028h561.791l-219.575-219.635 55.21-55.15 313.738 313.738z" />
<glyph unicode="&#xe923;" glyph-name="Puzzle" data-tags="Icon Puzzle" d="M512 960c285.2 0 512-226.8 512-512.060s-226.8-511.94-512-511.94c-285.261 0-512 226.739-512 512s226.739 512 512 512zM512 886.788c-241.37 0-438.969-197.479-438.969-438.849s197.539-446.194 438.969-446.194 438.849 204.824 438.849 446.194-197.419 438.849-438.849 438.849zM822.849 463.594c-19.688 0-31.127-4.997-52.26-20.049-28.357-20.169-45.095-33.415-52.32-6.141-7.104 27.394-22.517 131.432-26.13 150.999-3.612 19.627-11.981 27.575-26.25 32.030 0 0-102.593 19.688-130.649 26.13-26.491 6.141-41.182 18.002-19.929 52.741 14.209 23.24 19.989 31.91 19.989 51.838 0 43.289-35.101 78.45-78.389 78.45-43.349 0-78.389-35.161-78.389-78.45 0-19.688 6.623-33.114 19.567-51.898 24.504-35.522 9.814-46.54-19.567-52.681-31.669-6.563-130.77-26.13-130.77-26.13-15.594-2.649-26.13-14.69-26.13-31.187 0 0 0-42.145 0-147.989 0.301-1.264 0.662-2.649 1.024-3.853 7.526-26.070 27.575-11.801 52.32 6.201 15.895 11.5 32.572 20.049 52.26 20.049 43.289 0 78.389-35.101 78.389-78.45 0-43.289-35.101-78.45-78.389-78.45-20.832 0-35.221 6.683-53.705 21.494-18.423 14.871-45.757 33.114-50.875 4.636-0.301-1.565-0.662-3.673-1.024-5.84 0-111.744 0-151.059 0-151.059 0-14.45 11.68-26.13 26.13-26.13h418.198c14.51 0 23.661 9.392 26.25 26.13 0 0 20.952 128.241 26.13 156.839 5.238 28.478 21.735 18.544 50.875-4.636 14.811-11.74 32.873-21.494 53.765-21.494 43.289 0 78.45 35.161 78.45 78.45-0.12 43.349-35.281 78.45-78.57 78.45z" />
<glyph unicode="&#xe924;" glyph-name="Paperwork" data-tags="Icon Paperwork" d="M888.534 600.324l-20.711 8.79-183.511 78.269-146.544-343.902 279.421-119.15 114.453 268.704-43.108 107.289zM712.61 625.31l93.381-39.797-39.797-93.381-93.381 39.797 39.797 93.381zM792.504 285.742l-193.505 82.423 9.151 21.434 193.445-82.484-9.091-21.373zM810.807 328.67l-193.385 82.484 9.031 21.434 193.445-82.484-9.091-21.434zM829.11 371.718l-193.445 82.484 9.091 21.434 193.505-82.423-9.151-21.494zM512 960c-285.261 0-512-226.739-512-512 0-129.204 46.901-246.186 124.327-335.774l-0.060-0.783c2.348-2.709 5.118-4.877 7.526-7.466 12.944-14.269 26.611-27.876 41.061-40.64 2.589-2.288 4.756-4.997 7.405-7.285v0.602c89.046-75.319 204.463-120.655 331.74-120.655 285.2 0 512 226.679 512 511.94s-226.8 512.060-512 512.060zM346.792 585.874l-9.934 21.072 190.314 89.528 9.934-21.072-190.314-89.528zM547.040 654.209l9.874-21.072-190.254-89.588-9.934 21.072 190.314 89.588zM326.864 628.139l-9.934 21.133 190.314 89.528 9.934-21.193-190.314-89.468zM342.156 842.657l43.168-91.876-91.816-43.168-43.108 91.515c0.421 0.301 0.903 0.662 1.325 0.963l90.431 42.566zM449.565 6.924c-43.831 6.502-85.494 19.748-124.207 38.653l126.374-11.198-2.167-27.454zM454.803 64.482l-77.667 6.623-112.707 10.175c-14.811 10.476-28.719 22.036-42.145 34.137l234.988-20.892-2.468-30.043zM459.62 124.689l-270.389 24.023c-0.361 0.421-0.662 0.783-1.024 1.204l2.89 29.020 86.096-7.827 125.23-10.897 60.207-4.817-3.010-30.706zM203.138 259.552l11.439 131.251 130.649-11.379-11.439-131.311-130.649 11.439zM512 1.746c-0.722 0-1.385 0.12-2.107 0.12l27.394 313.678-96.331 114.995-28.899 2.408-257.686 22.879-13.246-148.711-7.104-82.604c-38.472 66.288-60.99 142.69-60.99 223.428 0 124.809 53.103 237.577 137.513 317.712l133.78-284.237 274.785 129.264-124.388 264.248-26.732 9.633c14.51 1.445 29.14 2.228 43.951 2.228 241.43 0 438.849-197.479 438.849-438.849s-197.358-446.194-438.788-446.194z" />
<glyph unicode="&#xe925;" glyph-name="Document" data-tags="Icon Document" d="M512 960c285.2 0 512-226.8 512-512.060s-226.8-511.94-512-511.94c-285.261 0-512 226.739-512 512s226.739 512 512 512zM512 886.788c-241.37 0-438.969-197.479-438.969-438.849s197.539-446.194 438.969-446.194 438.849 204.824 438.849 446.194-197.419 438.849-438.849 438.849zM621.095 738.92h-345.407v-581.84h472.625v454.502l-127.217 127.338zM353.957 667.274h158.043v-158.043h-158.043v158.043zM675.703 229.87h-327.345v36.245h327.345v-36.245zM675.703 302.54h-327.345v36.305h327.345v-36.305zM675.703 375.27h-327.345v36.425h327.345v-36.425z" />
<glyph unicode="&#xe926;" glyph-name="Employee" data-tags="Icon Employee" d="M706.167 628.741c0-110.96-89.951-200.911-200.911-200.911s-200.911 89.951-200.911 200.911c0 110.96 89.951 200.911 200.911 200.911s200.911-89.951 200.911-200.911zM512 960c-285.261 0-512-226.739-512-512s226.739-512 512-512c285.2 0 512 226.679 512 511.94s-226.8 512.060-512 512.060zM512 886.788c241.43 0 438.849-197.479 438.849-438.849 0-93.080-29.622-180.621-79.533-253.17-16.135 33.234-37.027 64-62.194 91.274v0.843c-0.783 0.843-1.686 1.445-2.529 2.288-5.78 6.201-12.523 11.379-18.785 17.159-9.212 8.67-18.062 17.52-28.177 25.287-7.044 5.419-14.992 9.754-22.457 14.69-10.295 6.864-20.29 14.209-31.308 20.169-9.151 4.937-19.146 8.549-28.779 12.824-10.295 4.576-20.169 9.874-30.946 13.667-14.269 4.997-29.381 8.309-44.373 11.74-6.803 1.565-13.246 4.094-20.169 5.358l-23.601-39.496-9.151-15.172h-87.18l-32.993 54.548c-125.11-22.638-228.967-99.944-283.575-203.981-45.396 70.322-72.068 153.588-72.068 241.972 0 241.37 197.599 438.849 438.969 438.849zM430.119 128.12l28.719 197.238h93.020l28.659-197.238-75.259-56.775-75.138 56.775z" />
<glyph unicode="&#xe927;" glyph-name="Education" data-tags="Icon Education" d="M512 960c-285.261 0-512-226.739-512-512s226.739-512 512-512c285.2 0 512 226.679 512 511.94s-226.8 512.060-512 512.060zM512 1.746c-127.94 0-243.176 57.859-323.612 147.808 20.29 11.018 46.48 41.001 46.48 92.779 0 39.977-3.673 69.118-7.526 90.371 10.175 7.285 17.279 18.724 17.279 32.151 0 16.196-9.513 29.742-23.119 36.305 4.335 51.296 16.075 78.209 37.991 96.692l2.348-0.783c15.112 12.222 35.462 20.711 61.953 31.187 6.563 2.589 18.965 7.646 26.19 10.536 116.38 48.045 161.716 61.11 162.378 61.291 9.934 3.251 20.711-1.987 23.902-11.861 3.372-9.874-1.987-20.651-11.801-23.902-0.783-0.241-45.095-12.884-160.030-60.448-7.405-3.071-14.45-5.84-21.133-8.489-13.667-5.358-24.986-9.693-34.438-13.968l205.306-68.395c1.686-0.602 3.251-0.903 4.877-0.903 1.806 0 3.432 0.301 5.178 0.903l377.799 126.013c6.262 2.047 10.657 8.068 10.657 14.931 0 6.683-4.275 12.643-10.657 14.811l-377.799 125.833c-3.372 1.084-6.803 1.084-10.055 0l-377.859-125.833c-6.382-2.167-10.777-8.128-10.777-14.871 0-6.864 4.395-12.824 10.777-14.931l90.973-30.344c-19.989-22.517-31.789-54.307-36.184-105.904-15.774-5.479-27.274-20.109-27.274-37.87 0-16.316 9.814-30.164 23.782-36.546-6.623-56.896-27.214-93.682-45.697-116.922-43.349 69.178-68.877 150.457-68.877 236.613 0 241.37 197.599 438.849 438.969 438.849 241.43 0 438.849-197.479 438.849-438.849s-197.419-446.254-438.849-446.254zM519.044 370.453c-4.877 0-9.814 0.903-14.811 2.408l-229.268 76.463c-4.094-10.837-6.262-24.805-6.262-45.035 14.992-8.67 29.562-26.13 29.562-56.113 0-18.423-9.151-31.488-17.099-40.459 34.017-39.436 127.699-67.673 238.058-67.673 139.259 0 251.966 44.975 251.966 100.425 0 12.222 0 62.194 0 111.383l-237.095-78.992c-4.937-1.505-9.874-2.408-15.052-2.408z" />
<glyph unicode="&#xe928;" glyph-name="Industry" data-tags="Icon Industry" d="M511.759 960.12c-284.779 0-511.759-226.98-511.759-512.361 0-164.365 75.861-310.066 195.071-402.785v-0.602c86.698-68.034 196.275-108.373 315.484-108.373h1.204c131.251 0 250.461 48.166 340.771 128.241 105.362 93.321 171.59 229.991 171.59 383.518 0 285.381-226.98 512.361-512.361 512.361zM72.85 447.759c0 102.954 36.124 198.081 96.331 272.738-0.602-97.535-2.408-393.754-3.612-543.669-57.799 75.259-92.719 169.784-92.719 270.931zM461.787 273.159v-91.515h-60.809v91.515h60.809zM400.978 334.028v91.515h60.809v-91.515h-60.809zM614.713 273.159v-91.515h-61.411v91.515h61.411zM553.302 334.028v91.515h61.411v-91.515h-61.411zM766.435 273.159v-91.515h-60.809v91.515h60.809zM705.626 334.028v91.515h60.869v-91.515h-60.869zM857.949 177.43v278.758c0 10.235-4.817 19.868-13.246 25.287l-183.029 121.618c-9.031 6.623-21.133 7.225-31.368 1.806-9.633-5.419-15.654-15.654-15.654-27.093v-90.913h-21.614l-175.202 116.199c-9.031 6.623-21.072 7.225-31.308 1.806-9.633-5.419-16.256-15.654-16.256-27.093v-90.913h-60.809v-48.166h-36.726l-12.643 314.882c-1.204 15.654-14.45 27.695-30.103 27.695h-2.408c76.463 65.626 175.804 105.362 284.177 105.362 241.43 0 438.909-197.479 438.909-438.909 0-100.546-34.318-195.071-92.719-270.329z" />
<glyph unicode="&#xe929;" glyph-name="Productivity" data-tags="Icon Productivity" d="M512 960c285.2 0 512-226.8 512-512.060s-226.8-511.94-512-511.94c-285.261 0-512 226.739-512 512s226.739 512 512 512zM512 886.788c-241.37 0-438.969-197.479-438.969-438.849 0-241.31 197.539-446.194 438.969-446.194 241.37 0 438.849 204.824 438.849 446.194s-197.479 438.849-438.849 438.849zM815.383 274.664l33.355 79.895-88.625 55.39c3.793 24.865 3.793 49.671 0.301 73.994l88.444 55.752-32.873 80.135-101.389-23.481c-14.45 20.049-32.030 37.75-52.44 52.982l23.119 101.509-79.955 33.475-54.849-87.902c-25.046 3.974-50.092 4.094-74.536 0.602l-54.307 87.902-80.316-32.753 21.976-101.087c-20.049-14.51-37.93-32.331-53.223-52.741l-100.485 23.842-33.355-79.955 86.818-56.053c-3.853-24.986-3.853-50.092-0.181-74.777l-87.782-54.186 32.753-80.376 101.148 22.096c14.751-19.929 32.331-37.69 52.741-52.862l-23.842-100.967 79.834-33.355 56.474 87.601c24.926-3.793 50.032-3.673 74.356 0.12l55.691-88.324 80.135 32.813-23.541 101.569c19.627 14.57 37.328 32.211 52.38 52.32l102.171-23.18zM465.52 336.316c-61.411 25.648-90.431 96.331-64.722 158.103 25.708 61.471 96.572 90.431 158.043 64.662s90.491-96.391 64.783-158.043c-25.769-61.471-96.391-90.371-158.103-64.722z" />
<glyph unicode="&#xe92a;" glyph-name="Insurance" data-tags="Icon Insurance" d="M512 960c285.2 0 512-226.8 512-512.060s-226.8-511.94-512-511.94c-285.261 0-512 226.739-512 512s226.739 512 512 512zM512 886.788c-241.37 0-438.969-197.479-438.969-438.849 0-241.31 197.539-446.194 438.969-446.194 241.37 0 438.849 204.824 438.849 446.194s-197.479 438.849-438.849 438.849zM428.071 84.531c-65.866 0-111.804 45.998-111.804 111.925 0 15.293 12.523 27.876 27.936 27.876 15.473 0 27.996-12.583 27.996-27.876 0-35.643 20.41-56.113 55.932-56.113 50.152 0 55.992 31.97 55.992 56.113v195.673c0 15.353 12.463 27.936 27.936 27.936 15.413 0 27.996-12.583 27.996-27.936v-195.673c-0.060-69.118-43.048-111.925-111.985-111.925zM870.292 392.188c0 0-51.236 55.932-120.595 55.932-69.419 0-125.893-55.932-125.893-55.932s-41.844 55.932-111.804 55.932-111.865-55.932-111.865-55.932-57.678 55.932-125.833 55.932c-68.154 0-120.595-55.932-120.595-55.932 0.060 197.78 160.452 330.175 358.292 330.175 197.9 0 358.292-132.395 358.292-330.175zM512 559.865c-15.473 0-27.936 12.583-27.936 27.996v195.733c0 15.473 12.463 27.936 27.936 27.936 15.413 0 27.996-12.463 27.996-27.936v-195.733c0-15.413-12.583-27.996-27.996-27.996z" />
<glyph unicode="&#xe92b;" glyph-name="Discount" data-tags="Icon Discount" d="M512 960c285.2 0 512-226.8 512-512.060s-226.8-511.94-512-511.94c-285.261 0-512 226.739-512 512s226.739 512 512 512zM512 886.788c-241.37 0-438.969-197.479-438.969-438.849 0-241.31 197.539-446.194 438.969-446.194 241.37 0 438.849 204.824 438.849 446.194s-197.479 438.849-438.849 438.849zM672.331 658.905h-512.903v-416.632h705.084v416.632h-192.181zM813.276 383.217l-20.892-20.832c-2.649 0.542-5.118 1.565-8.008 1.565-22.999 0-41.543-18.604-41.543-41.663 0-2.709 1.084-5.298 1.565-7.887l-20.892-20.952h-423.014l-20.952 20.952c0.542 2.589 1.565 5.178 1.565 7.887 0 23.059-18.604 41.603-41.543 41.603-2.83 0-5.298-1.084-7.887-1.505l-20.892 20.832v134.623l20.832 20.952c2.709-0.542 5.178-1.626 8.008-1.626 22.939 0 41.543 18.664 41.543 41.603 0 2.83-1.084 5.298-1.565 7.947l20.952 20.952h423.074l20.771-20.952c-0.542-2.649-1.565-5.118-1.565-7.947 0-22.939 18.604-41.543 41.543-41.543 2.89 0 5.238 1.084 8.008 1.565l20.892-20.952v-134.623zM500.681 504.956c0-51.778-32.813-78.751-68.576-78.751-37.629 0-67.311 28.117-67.311 74.536 0 44.132 27.033 77.667 69.178 77.667 42.687 0 66.709-31.187 66.709-73.452zM407.722 502.246c0-25.889 8.79-44.493 25.528-44.493 16.316 0 24.324 16.677 24.324 44.493 0 25.106-6.864 44.553-24.685 44.553-17.099 0-25.167-19.808-25.167-44.553zM435.176 322.709l141.968 255.699h31.187l-142.209-255.699h-30.946zM678.593 402.183c0-51.658-32.572-78.811-68.395-78.811-37.328 0-66.95 28.237-67.311 74.657 0 44.132 26.973 77.667 69.238 77.667 42.627-0.060 66.468-31.247 66.468-73.513zM586.175 399.533c-0.361-25.829 8.489-44.433 25.167-44.433 16.316 0 24.324 16.617 24.324 44.433 0 25.106-6.442 44.553-24.324 44.553-17.52 0-25.167-19.808-25.167-44.553z" />
<glyph unicode="&#xe92c;" glyph-name="Money" data-tags="Icon Money" d="M512 960c285.2 0 512-226.8 512-512.060s-226.8-511.94-512-511.94c-285.261 0-512 226.739-512 512s226.739 512 512 512zM512 886.788c-241.37 0-438.969-197.479-438.969-438.849 0-241.31 197.539-446.194 438.969-446.194 241.37 0 438.849 204.824 438.849 446.194s-197.479 438.849-438.849 438.849zM677.449 663.059h-529.46v-430.119h728.023v430.119h-198.563zM525.486 435.537c18.363-3.492 31.669-8.188 39.857-14.149 8.188-6.021 12.282-15.473 12.282-28.418 0-13.486-4.455-23.601-13.547-30.284-8.971-6.743-21.855-10.958-38.653-12.583v85.434zM293.569 285.863l-21.554 21.554c0.542 2.77 1.626 5.298 1.626 8.188 0 23.782-19.206 42.928-42.928 42.928-2.89 0-5.419-1.084-8.188-1.626l-21.675 21.675v138.897l21.614 21.554c2.77-0.482 5.298-1.626 8.248-1.626 23.722 0 42.928 19.206 42.928 42.928 0 2.89-1.144 5.419-1.686 8.188l21.614 21.614h207.172v-21.072c-29.14-2.348-51.838-10.536-68.154-24.564s-24.384-31.187-24.384-51.597c0-16.617 4.937-30.645 14.931-41.964 9.874-11.379 26.25-19.868 48.948-25.468 4.034-1.144 8.489-2.228 13.185-3.251 4.756-1.084 9.934-2.107 15.533-3.191v-89.407c-11.018 0.482-21.313 1.806-31.067 4.094-9.754 2.228-18.243 4.696-25.468 7.345-6.442 2.228-13.125 5.238-19.929 8.911-6.864 3.673-11.62 6.442-14.209 8.369h-3.372v-40.881c11.861-5.419 25.889-9.754 42.085-13.185 16.256-3.311 33.535-5.057 51.959-5.238v-33.234h-207.232zM500.741 474.13c-20.169 4.214-34.137 9.513-41.663 15.834-7.526 6.382-11.259 15.774-11.259 28.297 0 12.403 5.118 22.036 15.293 28.96 10.175 6.984 22.698 11.018 37.629 12.102v-85.193zM823.029 378.521l-21.554-21.554c-2.77 0.542-5.298 1.626-8.188 1.626-23.782 0-42.928-19.206-42.928-42.988 0-2.89 1.084-5.419 1.626-8.128l-21.614-21.614h-204.884v34.198c27.454 2.649 49.55 11.078 66.468 25.167 16.858 14.088 25.287 31.789 25.287 53.103 0 18.604-5.72 33.234-17.099 43.891-11.379 10.837-27.454 18.423-48.286 22.818-3.673 0.662-7.887 1.626-12.764 2.77-4.937 1.144-9.452 2.107-13.607 2.77v88.986c18.664-1.264 33.595-4.275 44.854-9.151 11.379-4.937 22.397-10.476 32.933-16.858h2.83v40.459c-10.055 3.974-22.517 7.466-37.268 10.536-14.871 3.010-29.2 4.696-43.409 4.937v20.651h204.884l21.554-21.614c-0.542-2.709-1.626-5.298-1.626-8.188 0-23.722 19.206-42.867 42.988-42.867 2.89 0 5.419 1.084 8.128 1.565l21.614-21.614v-138.897zM769.987 448c0-23.708-19.219-42.928-42.928-42.928s-42.928 19.219-42.928 42.928c0 23.708 19.219 42.928 42.928 42.928s42.928-19.219 42.928-42.928zM339.808 448c0-23.708-19.219-42.928-42.928-42.928s-42.928 19.219-42.928 42.928c0 23.708 19.219 42.928 42.928 42.928s42.928-19.219 42.928-42.928z" />
<glyph unicode="&#xe92d;" glyph-name="Share" data-tags="Icon Share" d="M512 960c285.2 0 512-226.8 512-512.060 0-285.2-226.8-511.94-512-511.94-285.261 0-512 226.739-512 511.94 0 285.261 226.739 512.060 512 512.060zM512 886.788c-241.37 0-438.969-197.479-438.969-438.849 0-241.31 197.539-446.134 438.969-446.134 241.37 0 438.849 204.824 438.849 446.134 0 241.37-197.479 438.849-438.849 438.849zM446.615 683.229l-30.826-285.080-3.673-34.198 33.897 6.141 307.477 56.354c3.793-51.056-6.262-101.389-29.802-146.965-47.925-93.261-142.871-151.24-247.872-151.24-44.433 0-87.18 10.476-126.976 30.946-66.167 33.897-115.056 91.695-137.814 162.378s-16.497 146.183 17.46 212.29c43.289 84.169 125.17 139.56 218.13 149.373zM475.394 710.563c-110.058-0.361-216.083-60.327-269.848-164.967-76.764-149.313-17.942-332.643 131.492-409.588 44.493-22.939 91.936-33.656 138.777-33.656 110.42 0 216.865 60.207 270.811 165.208 31.067 60.508 39.496 126.615 29.14 188.99l-334.329-61.11 33.957 315.123zM680.881 757.945c-47.624 24.504-98.438 35.703-148.47 35.703-0.241 0-0.602 0-0.783 0l-36.245-336.497 356.786 65.445c-16.256 97.535-76.463 186.642-171.289 235.349z" />
<glyph unicode="&#xe92e;" glyph-name="Skypecall" data-tags="Icon Skypecall" d="M512 960c285.2 0 512-226.8 512-512.060s-226.8-511.94-512-511.94c-285.261 0-512 226.739-512 512s226.739 512 512 512zM512 886.788c-241.37 0-438.969-197.479-438.969-438.849s197.539-446.194 438.969-446.194 438.849 204.824 438.849 446.194-197.419 438.849-438.849 438.849zM701.11 152.384h-378.341v23.722c0 0 10.596 23.722 23.661 23.722h331.018c13.065 0 23.661-10.777 23.661-23.722v-23.722zM748.373 743.556h-472.926c-39.074 0-70.924-31.789-70.924-70.924v-331.078c0-39.135 31.789-70.984 70.924-70.984h165.569v-23.722c0-13.065 10.596-23.661 23.661-23.661h94.585c13.065 0 23.661 12.162 23.661 23.661 0 4.997 0 14.45 0 23.722h165.449c39.195 0 71.044 31.729 71.044 70.984v331.078c-0.060 39.135-31.849 70.924-71.044 70.924zM251.846 388.877v283.755c0 13.005 10.657 23.601 23.601 23.601h472.865c13.065 0 23.661-10.596 23.661-23.601v-283.755c0-13.065-10.596-23.661-23.661-23.661h-472.865c-12.944 0-23.601 10.596-23.601 23.661zM748.373 293.509c-13.547 0-24.444 10.958-24.444 24.444s11.018 24.504 24.444 24.504c13.727 0 24.564-11.018 24.564-24.504 0-13.667-10.958-24.444-24.564-24.444zM636.267 502.608c1.866 8.549 2.95 17.46 2.95 26.491 0 68.214-56.354 123.545-125.833 123.545-7.285 0-14.51-0.602-21.494-1.806-11.319 6.924-24.564 11.018-38.833 11.018-40.339 0-73.031-32.090-73.031-71.646 0-13.246 3.673-25.588 10.055-36.245-1.626-8.068-2.468-16.376-2.468-24.865 0-68.275 56.354-123.545 125.833-123.545 7.887 0 15.533 0.722 23.059 2.107 10.235-5.479 21.976-8.489 34.438-8.489 40.339 0 73.031 32.030 73.031 71.526-0.060 11.5-2.83 22.337-7.706 31.91zM577.987 470.036c-5.9-8.068-14.45-14.51-25.648-19.025-10.958-4.516-24.263-6.743-39.315-6.743-18.122 0-33.294 3.071-45.035 9.272-8.489 4.455-15.413 10.536-20.771 18.062-5.298 7.526-8.008 15.052-8.008 22.277 0 4.516 1.746 8.429 5.298 11.68 3.432 3.191 7.827 4.756 13.125 4.756 4.275 0 8.068-1.264 11.138-3.793 2.83-2.408 5.358-6.021 7.345-10.596 2.167-4.997 4.636-9.272 7.225-12.583 2.468-3.191 6.021-5.9 10.596-8.008 4.455-2.047 10.596-3.131 18.183-3.131 10.416 0 18.905 2.167 25.407 6.442 6.201 4.214 9.272 9.272 9.272 15.413 0 4.877-1.626 8.73-4.877 11.68-3.432 3.191-7.947 5.659-13.486 7.345-5.599 1.746-13.426 3.612-22.999 5.599-13.065 2.77-24.143 6.021-32.933 9.633-9.031 3.793-16.316 9.031-21.675 15.533-5.419 6.683-8.128 15.052-8.128 24.805 0 9.392 2.89 17.761 8.549 25.046 5.659 7.225 13.848 12.824 24.444 16.617 10.416 3.793 22.818 5.72 36.847 5.72 11.259 0 21.193-1.264 29.381-3.793 8.309-2.529 15.353-5.96 20.832-10.175 5.539-4.275 9.573-8.79 12.162-13.547 2.649-4.756 3.913-9.513 3.913-14.088 0-4.395-1.686-8.429-5.118-11.921-3.372-3.492-7.767-5.238-12.944-5.238-4.636 0-8.369 1.144-10.837 3.311-2.288 1.987-4.756 5.238-7.466 9.754-3.131 5.9-6.924 10.536-11.319 13.727-4.214 3.191-11.319 4.756-21.072 4.756-8.971 0-16.316-1.746-21.735-5.298-5.298-3.372-7.827-7.225-7.827-11.861 0-2.77 0.843-5.118 2.529-7.165 1.746-2.167 4.275-4.034 7.466-5.599 3.372-1.565 6.803-2.89 10.175-3.793 3.492-0.963 9.272-2.408 17.4-4.214 10.175-2.167 19.567-4.516 27.816-7.165 8.429-2.649 15.654-5.9 21.554-9.693 5.96-3.793 10.777-8.73 14.149-14.63 3.432-5.96 5.178-13.306 5.178-21.795 0-10.175-3.010-19.387-8.79-27.575z" />
<glyph unicode="&#xe92f;" glyph-name="Anydevice" data-tags="Icon Anydevice" d="M512 960c285.2 0 512-226.8 512-512.060s-226.8-511.94-512-511.94c-285.261 0-512 226.739-512 512s226.739 512 512 512zM512 886.788c-241.37 0-438.969-197.479-438.969-438.849s197.539-446.194 438.969-446.194 438.849 204.824 438.849 446.194-197.419 438.849-438.849 438.849zM813.998 447.94c-7.947 0-109.817 0-117.644 0-17.039 0-30.766-14.69-30.766-32.873 0-8.489 0-207.232 0-215.722 0-18.122 13.727-32.873 30.766-32.873 7.827 0 109.697 0 117.644 0 16.918 0 30.766 14.751 30.766 32.873 0 8.489 0 207.232 0 215.722-0.060 18.183-13.848 32.873-30.766 32.873zM755.116 179.658c-6.743 0-12.403 5.599-12.403 12.342 0 6.803 5.659 12.463 12.403 12.463 6.803 0 12.342-5.659 12.342-12.463 0-6.743-5.539-12.342-12.342-12.342zM806.352 230.472h-102.352v179.056h102.352v-179.056zM430.119 524.764c-7.887 0-212.169 0-220.056 0-16.918 0-30.766-14.751-30.766-32.873 0-8.489 0-284.056 0-292.485 0-18.122 13.787-32.873 30.766-32.873 7.887 0 212.169 0 220.056 0 16.978 0 30.766 14.751 30.766 32.873 0 8.489 0 284.056 0 292.485-0.060 18.062-13.787 32.873-30.766 32.873zM320.060 179.658c-6.803 0-12.463 5.599-12.463 12.342 0 6.803 5.659 12.463 12.463 12.463 6.864 0 12.342-5.659 12.342-12.463 0-6.743-5.419-12.342-12.342-12.342zM422.412 230.472h-204.704v255.88h204.704v-255.88zM281.648 550.292v102.412c0 14.088 11.5 25.588 25.648 25.588h409.468c14.088 0 25.648-11.439 25.648-25.588v-179.176h51.176v179.176c0 42.386-34.378 76.764-76.764 76.764h-409.528c-42.446 0-76.764-34.378-76.764-76.764v-102.412h51.116zM639.94 294.412v51.176h-153.528v-127.94h153.528v51.176h-76.764v25.588z" />
<glyph unicode="&#xe930;" glyph-name="Central2" data-tags="Icon Central2" d="M512 960c285.2 0 512-226.8 512-512.060s-226.8-511.94-512-511.94c-285.261 0-512 226.739-512 512s226.739 512 512 512zM512 886.788c-241.37 0-438.969-197.479-438.969-438.849s197.539-446.194 438.969-446.194 438.849 204.824 438.849 446.194-197.419 438.849-438.849 438.849zM521.513 568.715c-2.649-2.228-5.96-3.191-9.212-3.191s-6.502 0.963-9.212 3.191c-2.589 1.987-64.301 58.943-103.917 117.524-3.010 4.516-3.311 10.356-0.783 15.172 2.589 4.817 7.586 7.767 13.125 7.767h51.658c0 0 7.044 97.897 10.777 103.195 5.539 7.827 23.36 13.065 38.292 13.065 14.871 0 30.645-5.238 36.184-13.065 3.793-5.298 12.884-103.255 12.884-103.255h51.838c5.479 0 10.476-2.95 13.065-7.767 2.529-4.817 2.288-10.657-0.783-15.172-39.556-58.521-101.268-115.477-103.917-117.464zM502.608 327.285c2.649 2.167 5.96 3.251 9.212 3.251s6.502-1.084 9.212-3.251c2.529-1.927 64.361-58.943 103.917-117.524 3.071-4.455 3.372-10.356 0.783-15.052-2.589-4.817-7.586-7.827-13.125-7.827h-51.718c0 0-7.044-97.897-10.837-103.195-5.539-7.827-23.36-13.125-38.231-13.125-14.931 0-30.645 5.298-36.184 13.125-3.793 5.298-12.884 103.195-12.884 103.195h-51.838c-5.479 0-10.476 3.010-13.065 7.827-2.529 4.696-2.348 10.596 0.783 15.052 39.556 58.581 101.328 115.597 103.977 117.524zM632.775 438.548c-2.228 2.709-3.191 5.96-3.191 9.212s0.963 6.502 3.191 9.212c1.987 2.529 58.943 64.361 117.464 103.917 4.516 3.071 10.356 3.372 15.172 0.783s7.767-7.586 7.767-13.065v-51.658c0 0 97.957-7.044 103.195-10.837 7.827-5.479 13.065-23.36 13.065-38.231s-5.238-30.645-13.065-36.124c-5.238-3.793-103.195-12.944-103.195-12.944v-51.778c0-5.539-2.95-10.536-7.767-13.125s-10.657-2.348-15.172 0.783c-58.521 39.496-115.477 101.208-117.464 103.857zM391.345 457.513c2.228-2.709 3.251-5.96 3.251-9.212s-1.084-6.502-3.251-9.212c-2.047-2.589-58.943-64.421-117.464-103.977-4.516-2.95-10.356-3.311-15.172-0.783-4.817 2.649-7.767 7.586-7.767 13.125v51.778c0 0-97.957 7.044-103.195 10.777-7.827 5.479-13.125 23.36-13.125 38.231s5.298 30.645 13.125 36.184c5.238 3.793 103.195 12.884 103.195 12.884v51.838c0 5.419 2.95 10.476 7.767 13.065 4.817 2.529 10.657 2.348 15.172-0.783 58.521-39.556 115.417-101.268 117.464-103.917zM570.341 448.060c0-32.187-26.093-58.28-58.28-58.28s-58.28 26.093-58.28 58.28c0 32.187 26.093 58.28 58.28 58.28s58.28-26.093 58.28-58.28z" />
<glyph unicode="&#xe931;" glyph-name="Appointment" data-tags="Icon Appointment" d="M512 960c285.2 0 512-226.8 512-512.060s-226.8-511.94-512-511.94c-285.261 0-512 226.739-512 512s226.739 512 512 512zM512 886.788c-241.37 0-438.969-197.479-438.969-438.849s197.539-446.194 438.969-446.194 438.849 204.824 438.849 446.194-197.419 438.849-438.849 438.849zM394.958 613.991c-10.596 10.356-27.454 10.175-37.81-0.301-10.235-10.536-10.055-27.515 0.482-37.81 10.476-10.295 27.394-9.994 37.629 0.482s10.175 27.394-0.301 37.629zM367.563 586.596v0c-6.021 5.96-6.322 14.871-1.084 19.688l74.536 69.178c2.408 2.228 8.489 4.395 13.486-0.542 4.937-4.817 2.89-10.958 0.843-13.486l-68.214-75.439c-4.696-5.419-13.547-5.238-19.567 0.602zM376.775 607.669v0c11.138 0.12 19.748-5.72 19.206-12.643l-5.479-83.387c-0.181-3.131-3.733-8.85-12.884-8.971-9.031 0-12.944 5.539-13.246 8.61l-6.382 83.507c-0.482 6.743 7.767 12.764 18.785 12.884zM287.007 726.999c1.746-0.241 3.311-0.963 4.455-2.167 1.204-1.204 1.987-2.709 2.167-4.455 0.241-1.686 1.987-44.794-4.877-80.316-0.482-2.77-2.589-4.937-5.298-5.78-2.589-0.843-5.539-0.12-7.526 1.927l-18.724 18.724c0 0-20.23-17.279-20.23-60.207-23.722-8.369-39.496 0-39.496 0 0 61.050 24.143 95.789 24.143 95.789l-18.845 18.785c-1.987 1.987-2.709 4.877-1.866 7.526 0.843 2.709 3.010 4.696 5.78 5.238 35.522 6.924 78.57 5.178 80.316 4.937zM680.038 606.706c-13.306 0-24.083 10.837-24.083 24.083v72.429c0 13.306 10.837 24.083 24.083 24.083v0c13.306 0 24.143-10.837 24.143-24.083v-72.429c0-13.246-10.837-24.083-24.143-24.083v0zM287.789 751.142c0.903-0.060 1.927-0.12 2.228-0.181 6.924-0.843 13.547-4.034 18.604-9.031 4.997-4.997 8.188-11.62 9.091-18.664 0-0.12 0-0.602 0-0.903 18.484 8.79 39.014 13.908 60.749 13.908 78.028 0 141.547-63.579 141.547-141.607s-63.518-141.607-141.547-141.607c-77.968 0-141.486 63.579-141.486 141.607 0 21.012 4.756 40.881 13.005 58.822l-31.548 25.648c-13.306-25.227-20.952-54.006-20.952-84.41 0-100.064 81.039-181.042 180.982-181.042 100.004 0 180.982 80.978 180.982 181.042 0 99.883-81.039 180.922-180.982 180.922-33.114 0-63.94-9.031-90.672-24.504zM462.931 293.148h48.226v-48.346h-48.226v48.346zM366.42 389.539h48.226v-48.226h-48.226v48.226zM366.42 293.148h48.226v-48.346h-48.226v48.346zM559.443 389.539h48.286v-48.226h-48.286v48.226zM559.443 293.148h48.286v-48.346h-48.286v48.346zM559.443 486.111h48.286v-48.286h-48.286v48.286zM752.467 679.135h-24.083v-48.286c0-26.611-21.614-48.226-48.346-48.226-26.551 0-48.226 21.614-48.226 48.226v48.286h-66.649c11.68-25.829 18.423-54.307 18.423-84.41 0-21.072-3.191-41.242-9.091-60.388h202.115v-313.618c0-13.306-10.837-24.083-24.083-24.083h-434.393c-13.306 0-24.143 10.837-24.143 24.083v187.304c-17.52 8.008-33.716 18.243-48.226 30.525v-217.829c0-39.977 32.452-72.429 72.369-72.429h434.333c39.977 0 72.429 32.452 72.429 72.429v385.987c0 40.038-32.452 72.429-72.429 72.429zM462.931 389.539h48.226v-48.226h-48.226v48.226zM655.955 486.111h48.286v-48.286h-48.286v48.286zM655.955 293.148h48.286v-48.346h-48.286v48.346zM655.955 389.539h48.286v-48.226h-48.286v48.226z" />
<glyph unicode="&#xe932;" glyph-name="Safety" data-tags="Icon Safety" d="M512 960c285.2 0 512-226.8 512-512.060s-226.8-511.94-512-511.94c-285.261 0-512 226.739-512 512s226.739 512 512 512zM512 886.788c-241.37 0-438.969-197.479-438.969-438.849s197.539-446.194 438.969-446.194 438.849 204.824 438.849 446.194-197.419 438.849-438.849 438.849zM797.863 661.253c-5.298 6.141-12.944 9.633-20.832 9.874-61.712 1.626-139.801 67.552-191.458 93.501-31.97 15.955-52.982 26.431-68.756 29.2-1.626 0.241-3.251 0.421-4.817 0.421-1.626 0-3.251-0.181-4.937-0.421-15.714-2.77-36.726-13.246-68.636-29.2-51.658-25.949-129.686-91.876-191.458-93.501-7.947-0.241-15.533-3.733-20.892-9.874-5.479-6.081-8.309-14.149-7.887-22.457 13.306-269.486 109.998-436.199 279.661-533.193 4.395-2.529 9.272-3.793 14.209-3.793 4.817 0 9.693 1.264 14.149 3.793 169.603 96.993 266.295 263.767 279.601 533.193 0.301 8.309-2.408 16.376-7.947 22.457zM648.068 385.746c0-36.606-69.96-44.975-135.706-44.975-65.626 0-136.549 8.369-136.549 44.975 0 7.104 0 2.77 0 10.055 0 26.792 48.406 53.945 89.588 68.877 3.010 1.144 17.279 8.85 9.332 29.802-20.47 20.832-35.823 54.608-35.823 87.902 0 51.056 33.716 77.727 73.151 77.727 39.375 0 73.272-26.672 73.272-77.727 0-33.174-15.533-66.83-35.823-87.782v0c-7.706-23.661 4.696-29.321 6.683-29.983 43.289-14.269 91.816-41.302 91.816-68.877 0.060-7.225 0.060-2.89 0.060-9.994z" />
<glyph unicode="&#xe933;" glyph-name="Safety2" data-tags="Icon Safety2" d="M929.836 765.592c-7.827 8.911-18.905 14.088-30.525 14.389-90.19 2.348-204.403 98.8-279.782 136.73-46.66 23.3-77.426 38.713-100.485 42.687-2.408 0.361-4.756 0.602-7.044 0.602-2.408 0-4.756-0.241-7.165-0.602-23.059-3.974-53.825-19.387-100.425-42.687-75.5-37.93-189.592-134.322-279.902-136.67-11.62-0.301-22.698-5.479-30.465-14.45-8.008-8.79-12.162-20.591-11.56-32.753 19.387-393.934 160.753-637.712 408.745-779.5 6.442-3.673 13.607-5.539 20.771-5.539 7.044 0 14.149 1.866 20.711 5.539 247.932 141.787 389.298 385.565 408.625 779.5 0.602 12.162-3.492 23.962-11.5 32.753zM710.924 362.867c0-53.524-102.352-65.746-198.442-65.746-95.91 0-199.526 12.222-199.526 65.746 0 10.476 0 3.974 0 14.69 0 39.135 70.743 78.931 130.95 100.666 4.395 1.626 25.287 12.944 13.667 43.59-29.863 30.465-52.38 79.895-52.38 128.542 0 74.596 49.189 113.611 106.867 113.611 57.558 0 107.108-38.954 107.108-113.611 0-48.467-22.698-97.656-52.38-128.301h0.060c-11.319-34.619 6.803-42.867 9.754-43.831 63.278-20.892 134.262-60.327 134.262-100.666 0.060-10.717 0.060-4.214 0.060-14.69z" />
<glyph unicode="&#xe934;" glyph-name="Search2" data-tags="Icon Search2" d="M948.741 133.72l-163.944 163.763c-20.47 20.531-51.176 23.481-75.5 10.717l-32.452 32.271c46.781 59.364 76.102 133.419 76.102 214.939 0 192.241-156.056 348.237-348.297 348.237-192.361 0-348.237-155.996-348.237-348.237 0-192.301 155.876-348.297 348.237-348.297 81.52 0 155.515 29.2 214.818 76.222l32.452-32.391c-12.824-24.444-9.874-55.21 10.717-75.74l163.823-163.883c25.407-25.287 66.348-25.287 91.695 0l30.585 30.525c25.167 25.407 25.167 66.468 0 91.876zM120.655 555.409c0 156.779 127.097 283.816 283.996 283.816 156.839 0 283.816-126.976 283.816-283.816s-126.976-283.816-283.816-283.816c-156.839 0-283.996 127.037-283.996 283.816z" />
<glyph unicode="&#xe935;" glyph-name="Search" data-tags="Icon Search" d="M512 960c285.2 0 512-226.8 512-512.060s-226.8-511.94-512-511.94c-285.261 0-512 226.739-512 512s226.739 512 512 512zM512 886.788c-241.37 0-438.969-197.479-438.969-438.849s197.539-446.194 438.969-446.194 438.849 204.824 438.849 446.194-197.419 438.849-438.849 438.849zM791.842 254.314l-111.624 111.503c-13.848 13.968-34.8 16.015-51.417 7.285l-22.096 21.976c31.91 40.399 51.838 90.852 51.838 146.363 0 130.89-106.325 237.095-237.155 237.095-130.95 0-237.095-106.205-237.095-237.095 0-130.95 106.145-237.095 237.095-237.095 55.511 0 105.904 19.868 146.243 51.838l22.096-22.036c-8.73-16.617-6.683-37.569 7.285-51.537l111.503-111.563c17.279-17.219 45.215-17.219 62.435 0l20.832 20.771c17.279 17.219 17.279 45.215 0.060 62.495zM228.184 541.441c0 106.747 86.517 193.204 193.264 193.204 106.807 0 193.264-86.457 193.264-193.204s-86.457-193.204-193.264-193.204c-106.747 0-193.264 86.397-193.264 193.204z" />
<glyph unicode="&#xe936;" glyph-name="Calculate" data-tags="Icon Calculate" d="M512 960c285.2 0 512-226.8 512-512.060s-226.8-511.94-512-511.94c-285.261 0-512 226.739-512 512s226.739 512 512 512zM512 886.788c-241.37 0-438.969-197.479-438.969-438.849s197.539-446.194 438.969-446.194 438.849 204.824 438.849 446.194-197.419 438.849-438.849 438.849zM682.928 765.471h-341.915c-40.459 0-73.212-32.813-73.212-73.272v-488.399c0-40.399 32.753-73.212 73.212-73.212h341.915c40.459 0 73.272 32.813 73.272 73.212v488.399c0 40.459-32.813 73.272-73.272 73.272zM707.311 570.1c0-13.486-10.958-24.384-24.384-24.384h-341.915c-13.426 0-24.384 10.958-24.384 24.384v122.1c0 13.486 11.018 24.444 24.384 24.444h341.915c13.486 0 24.384-11.018 24.384-24.444v-122.1zM414.344 448c0-13.486-11.018-24.384-24.384-24.384h-48.948c-13.426 0-24.384 10.958-24.384 24.384v24.444c0 13.426 11.018 24.384 24.384 24.384h48.948c13.426 0 24.384-11.018 24.384-24.384v-24.444zM560.768 448c0-13.486-10.897-24.384-24.384-24.384h-48.828c-13.426 0-24.384 10.958-24.384 24.384v24.444c0 13.426 11.018 24.384 24.384 24.384h48.888c13.547 0 24.384-11.018 24.384-24.384v-24.444zM707.311 448c0-13.486-10.958-24.384-24.384-24.384h-48.828c-13.486 0-24.504 10.958-24.504 24.384v24.444c0 13.426 11.078 24.384 24.504 24.384h48.828c13.486 0 24.384-11.018 24.384-24.384v-24.444zM414.344 325.96c0-13.486-11.018-24.444-24.384-24.444h-48.948c-13.426 0-24.384 11.018-24.384 24.444v24.444c0 13.366 11.018 24.384 24.384 24.384h48.948c13.426 0 24.384-11.078 24.384-24.384v-24.444zM560.768 325.96c0-13.486-10.897-24.444-24.384-24.444h-48.828c-13.426 0-24.384 11.018-24.384 24.444v24.444c0 13.366 11.018 24.384 24.384 24.384h48.888c13.547 0 24.384-11.078 24.384-24.384v-24.444zM707.311 325.96c0-13.486-10.958-24.444-24.384-24.444h-48.828c-13.486 0-24.504 11.018-24.504 24.444v24.444c0 13.366 11.078 24.384 24.504 24.384h48.828c13.486 0 24.384-11.078 24.384-24.384v-24.444zM414.344 203.74c0-13.366-11.018-24.384-24.384-24.384h-48.948c-13.426 0-24.384 11.078-24.384 24.384v24.384c0 13.547 11.018 24.444 24.384 24.444h48.948c13.426 0 24.384-10.958 24.384-24.444v-24.384zM560.768 203.74c0-13.366-10.897-24.384-24.384-24.384h-48.828c-13.426 0-24.384 11.078-24.384 24.384v24.384c0 13.547 11.018 24.444 24.384 24.444h48.888c13.547 0 24.384-10.958 24.384-24.444v-24.384zM707.311 203.74c0-13.366-10.958-24.384-24.384-24.384h-48.828c-13.486 0-24.504 11.078-24.504 24.384v24.384c0 13.547 11.078 24.444 24.504 24.444h48.828c13.486 0 24.384-10.958 24.384-24.444v-24.384zM658.544 667.755v-73.212h-48.948v73.212h48.948zM658.544 692.199h-48.948c-13.366 0-24.384-10.958-24.384-24.384v-73.272c0-13.486 11.078-24.384 24.384-24.384h48.948c13.426 0 24.384 10.958 24.384 24.384v73.212c0 13.486-11.018 24.444-24.384 24.444v0z" />
<glyph unicode="&#xe937;" glyph-name="Icon-Access2" data-tags="Icon Access2" d="M512 960c285.2 0 512-226.8 512-512.060s-226.8-511.94-512-511.94c-285.261 0-512 226.739-512 512s226.739 512 512 512zM512 886.788c-241.37 0-438.969-197.479-438.969-438.849s197.539-446.194 438.969-446.194 438.849 204.824 438.849 446.194-197.419 438.849-438.849 438.849zM685.697 565.885h-74.416v26.852c0 45.577-12.884 121.979-99.221 121.979-89.588 0-99.221-85.313-99.221-121.979v-26.852h-74.536v26.852c0 119.33 68.154 196.455 173.697 196.455s173.697-77.125 173.697-196.455v-26.852zM685.697 541.080h-347.394c-41.121 0-74.416-33.355-74.416-74.476v-248.113c0-41.121 33.355-74.416 74.416-74.416h347.394c41.121 0 74.416 33.355 74.416 74.416v248.113c0 41.121-33.355 74.476-74.416 74.476zM536.805 324.636v-56.534c0-13.667-11.198-24.805-24.805-24.805s-24.805 11.198-24.805 24.805v56.534c-14.811 8.61-24.805 24.444-24.805 42.687 0 27.394 22.216 49.611 49.611 49.611s49.611-22.216 49.611-49.611c0-18.243-9.994-34.077-24.805-42.687z" />
<glyph unicode="&#xe938;" glyph-name="Icon-Mobile" data-tags="Icon Mobile" d="M512 960c285.2 0 512-226.8 512-512.060s-226.8-511.94-512-511.94c-285.261 0-512 226.739-512 512s226.739 512 512 512zM512 886.788c-241.37 0-438.969-197.479-438.969-438.849s197.539-446.194 438.969-446.194 438.849 204.824 438.849 446.194-197.419 438.849-438.849 438.849zM644.576 758.969h-264.188c-32.090 0-58.040-26.070-58.040-58.1v-522.657c0-32.211 26.009-58.1 58.040-58.1h264.188c32.090 0 58.1 25.889 58.1 58.1v522.657c0 32.090-26.009 58.1-58.1 58.1zM452.877 722.363h119.15v-9.212h-119.15v9.212zM512.542 140.944c-12.824 0-23.24 10.476-23.24 23.18 0 12.944 10.416 23.36 23.24 23.36s23.24-10.416 23.24-23.36c-0.060-12.704-10.416-23.18-23.24-23.18zM644.576 207.172h-264.188v464.677h264.188v-464.677z" />
<glyph unicode="&#xe939;" glyph-name="Desktop" data-tags="Icon Desktop" d="M512 960c285.2 0 512-226.8 512-512.060s-226.8-511.94-512-511.94c-285.261 0-512 226.739-512 512s226.739 512 512 512zM512 886.788c-241.37 0-438.969-197.479-438.969-438.849s197.539-446.194 438.969-446.194 438.849 204.824 438.849 446.194-197.419 438.849-438.849 438.849zM701.11 152.384h-378.341v23.722c0 0 10.596 23.722 23.661 23.722h331.018c13.065 0 23.661-10.717 23.661-23.722v-23.722zM748.373 743.556h-472.926c-39.074 0-70.924-31.789-70.924-70.924v-331.078c0-39.135 31.789-70.924 70.924-70.924h165.569v-23.722c0-13.005 10.596-23.661 23.661-23.661h94.585c13.065 0 23.661 12.222 23.661 23.661 0 4.997 0 14.45 0 23.722h165.449c39.195 0 71.044 31.729 71.044 70.924v331.078c-0.060 39.135-31.849 70.924-71.044 70.924zM251.846 388.877v283.755c0 13.005 10.657 23.601 23.601 23.601h472.865c13.065 0 23.722-10.596 23.722-23.601v-283.755c0-13.065-10.657-23.661-23.722-23.661h-472.865c-12.944 0-23.601 10.596-23.601 23.661zM748.373 293.449c-13.547 0-24.444 10.958-24.444 24.504s10.958 24.504 24.444 24.504c13.667 0 24.564-11.018 24.564-24.504 0-13.607-10.958-24.504-24.564-24.504z" />
<glyph unicode="&#xe93a;" glyph-name="Access" data-tags="Icon Access" d="M512 960c285.2 0 512-226.8 512-512.060s-226.8-511.94-512-511.94c-285.261 0-512 226.739-512 512s226.739 512 512 512zM512 886.788c-241.37 0-438.969-197.479-438.969-438.849s197.539-446.194 438.969-446.194 438.849 204.824 438.849 446.194-197.419 438.849-438.849 438.849zM395.68 745.483c-100.064 0-181.163-81.099-181.163-181.163s81.099-181.223 181.163-181.223c100.064 0 181.223 81.219 181.223 181.283s-81.159 181.103-181.223 181.103zM337.701 561.972c-33.294 0-60.327 27.033-60.327 60.327s27.033 60.327 60.327 60.327 60.327-27.033 60.327-60.327c0-33.294-27.033-60.327-60.327-60.327zM802.92 272.135l-208.256 208.196c-6.322-14.992-14.45-28.96-23.902-42.024l181.404-181.404c7.947-8.008 7.947-20.832 0-28.839-7.947-7.887-20.892-7.887-28.779 0l-179.417 179.417c-22.277-21.072-49.008-37.389-78.751-47.503v-32.151c0-10.235 8.309-18.604 18.544-18.604h51.056v-51.056c0-10.235 8.309-18.604 18.544-18.604h51.056v-50.995c0-10.235 8.309-18.604 18.604-18.604h51.959l12.884-13.005c7.947-7.887 87.3-12.102 107.229 7.767s15.714 99.462 7.827 107.409z" />
<glyph unicode="&#xe93b;" glyph-name="Cycle" data-tags="Icon Cycle" d="M890.341 788.771l73.814 73.754-256.722 59.244 59.183-256.662 68.275 68.214c65.866-77.547 109.336-175.865 109.336-285.321 0-236.914-193.385-434.333-434.273-434.333l-74.958-74.897c27.575 0 51.357-3.974 74.958-3.974 284.357 0 513.385 229.027 513.385 513.204 0.060 132.997-51.658 251.123-132.997 340.771zM184.835 162.318c-66.709 73.814-109.095 174.721-109.095 285.622 0 236.854 193.385 434.333 434.273 434.333l75.018 75.078c-23.601 3.913-47.383 3.913-71.104 3.913-284.237 0-513.084-229.087-513.084-513.325-3.793-130.228 45.757-250.461 126.976-342.578l-71.887-71.947 256.662-59.183-59.183 256.602-68.576-68.516z" />
<glyph unicode="&#xe93c;" glyph-name="HRProjectManagement" data-tags="Icon HR Project Management" d="M0 748.695h986.093v-64.062h-986.093v64.062zM0 614.695h585.171v-64.062h-585.171v64.062zM438.827 211.367h585.173v-64.062h-585.173v64.062zM400.922 480.009h585.171v-64.062h-585.171v64.062zM260.085 345.367h585.102v-64.062h-585.102v64.062z" />
<glyph unicode="&#xe93d;" glyph-name="HRTimeTracking" data-tags="Icon HR Time Tracking" d="M511.989 446.094c-6.954 0-13.515-1.094-19.954-2.845-73.382 38.845-197.414 104.531-203.109 107.531-14.39 7.97-32.243 5.469-41.243-8.093-9.147-13.626-4.586-29.501 8.211-41.438 8.438-7.562 114.181-95.093 177.086-146.938 5.57-38.656 38.586-68.499 79.008-68.499 44.398 0 80.149 35.813 80.149 80.094 0.001 44.251-35.75 80.188-80.148 80.188zM803.566 680.97l48.547 61.218c11.25 14.094 8.843 34.688-5.227 45.813l-48.726 38.688c-14.070 11.187-34.562 8.624-45.71-5.469l-49.875-62.845c-1.477-1.656-2.626-3.656-3.64-5.718-35.742 17.219-73.962 29.626-114.306 36.531v57.97c0 2.686-0.288 5.062-0.968 7.624h8.477c18 0 32.686 14.438 32.686 32.438v40.092c0 18-14.686 32.688-32.686 32.688h-160.274c-18 0-32.688-14.688-32.688-32.688v-40.093c0-18 14.688-32.438 32.688-32.438h8.328c-0.555-2.562-0.845-4.938-0.845-7.624v-57.97c-202.491-34.531-357.304-211.062-357.304-423.28 0-237.032 192.899-429.907 429.946-429.907 237.062 0 429.968 192.875 429.968 429.907 0 124.375-53.507 236.375-138.391 315.063zM511.989 33.813c-183.11 0-332.11 149-332.11 332.094 0 183.155 149 332.187 332.11 332.187 183.125 0 332.133-149.032 332.133-332.187 0-183.094-149.008-332.094-332.133-332.094z" />
<glyph unicode="&#xe93e;" glyph-name="HRIdeaManagement" data-tags="Icon HR Idea Management" d="M436.422 11.594c0-41.859 33.781-75.594 75.578-75.594s75.578 33.859 75.578 75.594c0 41.657-151.156 41.657-151.156 0zM631.133 4.266c0-16.453-13.36-29.875-29.742-29.875h-178.781c-16.382 0-29.742 13.422-29.742 29.875v59.594c0 16.422 13.36 29.75 29.742 29.75h178.78c16.382 0 29.742-13.328 29.742-29.75v-59.594zM512 684.75c-127.523 0-230.899-103.469-230.899-230.906 0-130.986 112.642-207.251 112.642-274.406v-16.376c0-16.328 13.366-29.562 29.57-29.562h177.376c16.203 0 29.437 13.234 29.437 29.562v16.126c0 67.405 112.774 141.467 112.774 274.656-0.001 127.438-103.439 230.906-230.9 230.906v0zM387.382 372.266c-17.274 24.344-27.547 53.829-27.547 85.782 0 82.718 68.078 149.781 151.978 149.781 29.187 0 56.414-8.187 79.555-22.39-2.782 0.141-5.68 0.469-8.517 0.469-108.547 0-196.483-86.813-196.483-193.907 0-6.563 0.453-13.297 1.014-19.735zM848.984 81.688c-8.266 0-16.523 3.141-22.827 9.453l-84.211 84.282c-12.602 12.61-12.594 33.032 0.022 45.64 12.602 12.61 33.040 12.594 45.634-0.014l84.219-84.282c12.602-12.626 12.594-33.046-0.024-45.642-6.296-6.296-14.562-9.437-22.813-9.437zM174.899 81.813c-8.274 0-16.531 3.141-22.837 9.453-12.594 12.594-12.594 33.032 0.016 45.642l84.274 84.218c12.616 12.61 33.046 12.61 45.64-0.014 12.594-12.61 12.594-33.048-0.016-45.642l-84.274-84.218c-6.296-6.298-14.553-9.439-22.803-9.439zM988.672 418.797h-119.203c-17.829 0-32.274 14.438-32.274 32.266s14.445 32.266 32.274 32.266h119.203c17.829 0 32.274-14.437 32.274-32.266s-14.445-32.266-32.274-32.266zM154.531 418.797h-119.203c-17.827 0-32.274 14.438-32.274 32.266s14.446 32.266 32.274 32.266h119.203c17.829 0 32.274-14.437 32.274-32.266s-14.445-32.266-32.274-32.266zM764.773 671.563c-8.258 0-16.507 3.141-22.805 9.437-12.616 12.61-12.624 33.032-0.022 45.642l84.211 84.282c12.61 12.608 33.038 12.624 45.64 0.014 12.618-12.594 12.626-33.014 0.024-45.64l-84.219-84.282c-6.298-6.296-14.564-9.453-22.829-9.453zM259.227 671.563c-8.259 0-16.525 3.141-22.821 9.437l-84.219 84.219c-12.602 12.626-12.602 33.046 0 45.656 12.618 12.594 33.040 12.594 45.648 0l84.211-84.219c12.602-12.608 12.602-33.030 0-45.656-6.304-6.296-14.561-9.437-22.819-9.437zM512 776.251c-17.829 0-32.274 14.453-32.274 32.28v119.203c0 17.845 14.445 32.266 32.274 32.266s32.274-14.421 32.274-32.266v-119.203c0-17.827-14.445-32.28-32.274-32.28z" />
<glyph unicode="&#xe93f;" glyph-name="HRTalentManagement" data-tags="Icon HR Talent Management" d="M521.093 430.999c-6.406 0-12.781 1-19.078 3.062l-292.922 97.688c-5.28-13.797-7.938-31.594-7.938-57.531 19.094-11.078 37.72-33.298 37.72-71.642 0-23.483-11.72-40.405-21.875-51.64 43.453-50.422 163.078-86.626 304.125-86.626 177.797 0 321.938 57.501 321.938 128.36 0 15.626 0 79.578 0 142.344l-302.922-100.953c-6.235-2.062-12.61-3.062-19.048-3.062zM1010.25 684.359l-482.767 160.937c-4.155 1.39-8.608 1.39-12.718 0l-482.765-160.937c-8.173-2.72-13.766-10.39-13.766-19.048 0-8.64 5.594-16.342 13.766-19.062l160.358-53.483c19.235 15.686 45.235 26.453 79.203 39.859 8.314 3.296 24.173 9.702 33.376 13.515 148.702 61.374 206.624 78 207.562 78.328 12.469 4.171 26.298-2.578 30.563-15.203 4.234-12.656-2.515-26.328-15.25-30.578-0.938-0.328-57.454-16.485-204.376-77.219-9.453-3.891-18.499-7.437-27.046-10.829-17.453-6.874-31.875-12.358-44-17.952l262.374-87.39c2.094-0.672 4.11-1.016 6.328-1.016 2.235 0 4.298 0.344 6.39 1.016l482.766 160.952c8.187 2.72 13.75 10.422 13.75 19.062 0.002 8.657-5.561 16.328-13.748 19.048zM118.813 404.311c-0.126 0-0.251 0-0.376 0-10.827 0.235-19.469 9.141-19.234 20 3.421 178.376 53.25 206.438 165.546 252.861 148.517 61.328 249.094 95.234 250.094 95.578 10.219 3.406 21.39-2.094 24.843-12.376 3.469-10.28-2.077-21.39-12.342-24.827-1-0.328-100.438-33.859-247.626-94.626-100.578-41.578-138.219-57.141-141.298-217.39-0.217-10.673-8.951-19.22-19.607-19.22zM170.483 423.936c0-28.578-23.125-51.718-51.686-51.718-28.579 0-51.718 23.141-51.718 51.718 0 28.563 23.139 51.702 51.718 51.702 28.561 0.001 51.686-23.138 51.686-51.702zM139.562 423.202c5.328-19.39 18.376-70.36 18.376-155.829 0-85.515-55.986-125.062-79.344-125.062-15.079 0-78.594 34.281-78.594 40.235 0 12.922 100.578 67.016 100.578 240.656 0 0 25.937 47.235 38.984 0z" />
<glyph unicode="&#xe940;" glyph-name="HRSelfServices" data-tags="Icon HR Self-Services" d="M311.098 199.379c40.181 24.109 62.963-3.234 106.838-23.703 37.735-17.594 79.752-17.891 83.462 4.218 5.938 35.673 4.648 52.705 4.648 101.221 0 38.564-0.726 78.408-1.312 144.986-1.187 133.706 7.095 157.503 42.025 157.503 37.562 0 39.258-36.985 37.914-157.159-0.946-83.563-1.374-91.048 5.187-91.048 11.501 0 6.711 37.485 36.938 37.485 37.789 0 36.548-29.298 47.079-29.298 10.562 0 15.29 28.516 45.5 28.516 30.196 0 34.204-38.437 46.665-38.437 12.477 0 15.72 12.437 34.423 12.437 18.68 0 59.759-39.015 59.759-176.58 0-173.035-56.158-174.878-56.158-233.519h-235.003c-6.914 16.594-22.892 26.344-61.399 65.673-38.836 39.641-126.752 115.501-196.049 130.423-46.385 9.953-25.315 52.39-0.517 67.282zM400.765 489.695h-116.557c-13.431 0-24.312 10.891-24.312 24.314 0 13.421 10.882 24.312 24.312 24.312h116.557c13.429 0 24.312-10.891 24.312-24.312 0-13.423-10.883-24.314-24.312-24.314zM541.304 660.839c-13.437 0-24.32 10.891-24.32 24.328v94.345c0 13.423 10.883 24.314 24.32 24.314 13.431 0 24.314-10.891 24.314-24.314v-94.345c0-13.437-10.883-24.328-24.314-24.328zM430.429 608.166c-6.235 0-12.469 2.376-17.219 7.141l-76.673 76.83c-9.485 9.515-9.469 24.906 0.038 34.391 9.509 9.485 24.9 9.485 34.391-0.032l76.673-76.844c9.485-9.515 9.469-24.892-0.038-34.375-4.751-4.735-10.962-7.111-17.172-7.111zM798.395 489.695h-116.549c-13.437 0-24.32 10.891-24.32 24.314 0 13.421 10.883 24.312 24.32 24.312h116.549c13.431 0 24.312-10.891 24.312-24.312 0-13.423-10.881-24.314-24.312-24.314zM652.173 608.339c-6.218 0-12.437 2.374-17.188 7.125-9.499 9.499-9.499 24.876 0 34.375l76.673 76.673c9.501 9.501 24.884 9.501 34.383 0 9.501-9.499 9.501-24.89 0-34.391l-76.673-76.657c-4.748-4.751-10.967-7.125-17.195-7.125zM221.675 215.88h-133.478c-13.431 0-24.312 10.89-24.312 24.312v695.496c-0.001 13.421 10.881 24.312 24.312 24.312h847.607c13.431 0 24.312-10.891 24.312-24.312v-571.619c0-13.423-10.882-24.314-24.312-24.314-13.437 0-24.32 10.891-24.32 24.314v547.305h-798.967v-646.869h109.159c13.429 0 24.312-10.89 24.312-24.312s-10.884-24.313-24.313-24.313z" />
<glyph unicode="&#xe941;" glyph-name="HRAdministration" data-tags="Icon HR Administration" d="M512.004-64c-211.336 0-425.282 50.109-425.282 145.875 0 78.811 137.531 114.765 219.501 129.171l9.054-51.485c-128.422-22.578-176.282-59.64-176.282-77.686 0-31.766 131.656-93.594 373.008-93.594 241.344 0 373.008 61.827 373.008 93.594 0 14.578-33.797 44.562-126.891 67.39l12.461 50.765c109.062-26.765 166.696-67.61 166.696-118.155 0.001-95.766-213.937-145.875-425.273-145.875zM619.278 673.374c-23.907 3.875-65.211 6.579-106.648 6.626-41.899 0.016-83.883-2.704-108.008-6.626-58.571-4.344-92.189-51.61-92.189-72.594v-239.499c0-21.97 17.931-39.907 39.899-39.907h39.922v-239.499c0-21.97 17.93-39.875 39.914-39.875h159.664c21.994 0 39.915 17.906 39.915 39.875v239.499h39.922c21.976 0 39.906 17.938 39.906 39.907v239.5c-0.001 20.984-33.657 68.312-92.297 72.593zM512.004 720.531c66.149 0 119.742 53.64 119.742 119.75 0 66.093-53.593 119.719-119.742 119.719s-119.75-53.626-119.75-119.718c0-66.111 53.601-119.751 119.75-119.751zM758.066 53.25l-52.929 153.36 153.32 52.889 17.937-51.937-101.374-34.968 34.984-101.36z" />
<glyph unicode="&#xe942;" glyph-name="HRRecruiting" data-tags="Icon HR Recruiting" d="M590.406 682.56c0-117.203-95.211-212.298-212.282-212.298-117.218 0-212.342 95.094-212.342 212.298 0 117.25 95.125 212.282 212.342 212.282 117.071-0.001 212.282-95.033 212.282-212.282zM445.493 434.747l-27.515-45.578h-82.579l-27.523 45.578c-175.118-30.218-307.876-174.312-307.876-346.984 0-194.859 168.65 0 376.696 0s376.694-194.859 376.694 0c0 172.672-132.756 316.766-307.897 346.984zM376.696 120.403l-70.97 53.688 26.992 186.453h87.953l27.266-186.453-71.241-53.688zM813.133 324.982c-116.274 0-210.859 94.594-210.859 210.859s94.586 210.875 210.859 210.875c116.282 0 210.867-94.61 210.867-210.875s-94.586-210.859-210.867-210.859zM813.133 706.216c-93.952 0-170.382-76.437-170.382-170.374 0-93.954 76.43-170.406 170.382-170.406 93.954 0 170.39 76.453 170.39 170.406 0 93.937-76.437 170.374-170.39 170.374zM945.368 512.857h-109.384v-109.376h-45.694v109.376h-109.39v45.703h109.39v109.672h45.694v-109.672h109.384v-45.703z" />
<glyph unicode="&#xe90df;" glyph-name="Central" data-tags="Icon Central" d="M512 960c285.2 0 512-226.8 512-512.060s-226.8-511.94-512-511.94c-285.261 0-512 226.739-512 512s226.739 512 512 512zM512 886.788c-241.37 0-438.969-197.479-438.969-438.849 0-241.31 197.539-446.194 438.969-446.194 241.37 0 438.849 204.824 438.849 446.194s-197.479 438.849-438.849 438.849zM594.965 540.056v243.477h-164.425v-243.477h-91.936l174.119-162.92 174.179 162.92zM586.476 250.341c0-40.733-33.021-73.754-73.754-73.754s-73.754 33.021-73.754 73.754c0 40.733 33.021 73.754 73.754 73.754s73.754-33.021 73.754-73.754z" />
<glyph unicode="&#xe90ff;" glyph-name="Cloud" data-tags="Icon Cloud" d="M512 960c285.2 0 512-226.8 512-512.060s-226.8-511.94-512-511.94c-285.261 0-512 226.739-512 512s226.739 512 512 512zM512 886.788c-241.37 0-438.969-197.479-438.969-438.849 0-241.31 197.539-446.194 438.969-446.194 241.37 0 438.849 204.824 438.849 446.194s-197.479 438.849-438.849 438.849zM893.712 359.857c0 61.11-47.985 111.082-108.373 114.393 14.931 25.708 23.36 55.571 23.36 87.3 0 96.632-78.269 175.082-174.901 175.082-74.295 0-137.754-46.359-163.221-111.503-20.47 18.785-47.744 30.284-77.727 30.284-63.278 0-114.694-51.357-114.694-114.574-81.641 0-147.808-66.167-147.808-147.808 0-81.701 66.167-147.929 147.808-147.929h500.982c63.217 0.060 114.574 51.357 114.574 114.754z" />
<glyph unicode="&#xe916f;" glyph-name="Local" data-tags="Icon Local" d="M512 960c-285.261 0-512-226.8-512-512s226.739-511.94 512-511.94c285.2 0 512 226.739 512 511.94s-226.8 512-512 512zM377.076 529.099v-124.869h-59.786v124.869h59.786zM317.291 583.466v124.809h59.786v-124.809h-59.786zM377.076 353.114v-124.749h-59.786v124.749h59.786zM706.649 529.099v-124.869h-59.725v124.869h59.725zM646.924 583.466v124.809h59.725v-124.809h-59.725zM706.649 353.114v-124.749h-59.725v124.749h59.725zM624.226 583.466h-59.665v124.809h59.665v-124.809zM624.226 529.099v-124.869h-59.665v124.869h59.665zM624.226 353.114v-124.749h-59.665v124.749h59.665zM583.104 141.908v-124.929h-59.846v124.929h59.846zM541.863 583.466h-59.725v124.809h59.725v-124.809zM541.863 529.099v-124.869h-59.725v124.869h59.725zM541.863 353.114v-124.749h-59.725v124.749h59.725zM500.681 141.908v-124.929h-59.786v124.929h59.786zM459.5 583.466h-59.786v124.809h59.786v-124.809zM459.5 529.099v-124.869h-59.786v124.869h59.786zM459.5 353.114v-124.749h-59.786v124.749h59.786zM779.981 97.054v665.648h-535.962v-665.648c-103.676 82.544-170.928 210.363-170.928 350.946 0 241.37 197.539 438.849 438.969 438.849 241.37 0 438.849-197.479 438.849-438.849-0.060-140.583-67.311-268.403-170.928-350.946z" />
<glyph unicode="&#xe921f;" glyph-name="Web" data-tags="Icon Web" d="M512 960c285.2 0 512-226.8 512-512.060s-226.8-511.94-512-511.94c-285.261 0-512 226.739-512 512s226.739 512 512 512zM512 886.788c-241.37 0-438.969-197.479-438.969-438.849 0-241.31 197.539-446.194 438.969-446.194 241.37 0 438.849 204.824 438.849 446.194s-197.479 438.849-438.849 438.849zM512.060 821.705c-206.149 0-373.765-167.616-373.765-373.705s167.616-373.705 373.765-373.705c206.088 0 373.644 167.616 373.644 373.705s-167.556 373.705-373.644 373.705zM429.878 781.727c-28.598-27.214-52.922-68.154-70.924-119.089-25.106 12.463-48.587 27.996-70.322 46.48 40.158 34.438 88.263 59.545 141.246 72.61zM269.968 692.199c24.926-21.554 52.26-39.375 81.34-53.464-15.533-52.32-24.745-113.069-25.769-178.875h-156.96c3.131 90.672 41.121 172.613 101.389 232.339zM168.579 436.139h156.96c1.024-66.228 10.356-127.458 26.13-180.019-28.96-13.968-56.354-31.368-81.159-52.741-60.568 59.786-98.8 141.848-101.93 232.76zM288.331 187.183c21.795 18.484 45.516 33.656 70.683 46.119 17.942-50.935 42.265-91.755 70.864-119.029-53.103 13.125-101.328 38.352-141.547 72.911zM500.199 104.519c-3.793 0.12-7.586 0.361-11.319 0.602-43.59 13.908-82.062 66.047-107.59 139.439 37.509 15.293 77.727 23.36 118.969 24.745v-164.786zM500.199 293.087c-43.77-1.385-86.457-9.693-126.254-25.708-14.69 49.791-23.541 107.469-24.564 168.76h150.818v-143.052zM500.199 459.861h-150.818c1.024 61.23 9.874 118.849 24.504 168.64 39.797-15.955 82.363-24.745 126.314-26.13v-142.51zM500.199 626.754c-41.422 1.445-81.641 9.272-119.029 24.504 25.528 73.573 64.060 125.712 107.71 139.68 3.793 0.241 7.586 0.421 11.319 0.602v-164.786zM855.481 459.861h-157.020c-1.024 66.228-10.356 127.458-26.13 180.019 29.020 14.028 56.414 31.368 81.219 52.802 60.508-59.786 98.8-141.848 101.93-232.82zM735.789 708.877c-21.795-18.484-45.577-33.716-70.803-46.179-17.942 50.935-42.265 91.876-70.803 119.089 53.103-13.125 101.389-38.352 141.607-72.911zM523.921 791.481c3.793-0.12 7.586-0.301 11.319-0.602 43.59-13.908 82.002-66.047 107.53-139.439-37.449-15.232-77.667-23.3-118.909-24.745v164.786zM523.921 602.913c43.71 1.385 86.397 9.693 126.254 25.708 14.63-49.851 23.481-107.53 24.504-168.76h-150.758v143.052zM523.921 436.139h150.758c-1.084-61.291-9.874-118.969-24.504-168.76-39.857 16.015-82.544 24.263-126.254 25.708v143.052zM535.3 105.121c-3.793-0.241-7.586-0.482-11.319-0.602v164.786c41.242-1.385 81.46-9.452 118.909-24.745-25.528-73.452-64.060-125.532-107.59-139.439zM594.183 114.273c28.538 27.153 52.862 68.094 70.803 119.029 25.227-12.463 48.948-27.635 70.743-46.179-40.218-34.559-88.504-59.786-141.547-72.85zM753.55 203.319c-24.805 21.373-52.139 38.833-81.219 52.802 15.774 52.561 25.106 113.791 26.13 180.019h157.020c-3.131-90.913-41.422-173.035-101.93-232.82z" />
</font>
</defs>
</svg>
